Скачать через торрент Семейка Аддамс The Addams Family Фильм бесплатно в хорошем качестве torrent

Скачивайте на UnionPeer.org фильмы через торрент без регистрации. Новинки кино в хорошем качестве через торрент. На UnionPeer.org можно скачать через торрент фильмы 2014 и 2015 годов. Самые новые фильмы.

Скачать торрент Семейка Аддамс The Addams Family бесплатно через .torrent фильм мультфильм сериал

Статистика раздачи
Размер:  23.1 GB   |    Зарегистрирован:  7 месяцев   |    .torrent скачан:  10 раз   |   
Раздают:  1  
 

Скачать Семейка Аддамс / The Addams Family (2019) BDRemux 1080p от селезень | A через torrent

 
Sprinthost
загрузка...
 
Автор Сообщение

Galfimbul ghost

avatar Galfimbul ghost


Семейка Аддамс /The Addams Family

Год выхода: 2019
Жанр: Мультфильм, ужасы, фэнтези, комедия, семейный
Режиссер: Грег Тирнан, Конрад Вернон
В ролях: Оскар Айзек, Шарлиз Терон, Хлоя Грейс Морец, Финн Вулфард, Ник Кролл, Снуп Догг, Бетт Мидлер, Эллисон Джэнни, Мартин Шорт, Кэтрин О`Хара



О фильме: Папа любит долгие прогулки в ненастную погоду. Мама считает, что черный цвет самый яркий. У детей кладбище - любимая площадка для игр. Бабушка выпивает пару капель яда перед сном. Вы все еще думаете, что ваши родственники странные? Знакомьтесь - семейка Аддамс.

Страна: Канада, США
Студия: Metro-Goldwyn-Mayer (MGM), Cinesite Animation
Продолжительность: 01:27:01
Перевод: Авторский | М. Яроцкий (Kyberpunk)

Качество: BDRemux 1080p
Видео: MPEG-4 AVC, 1920x1080, 29.3 Mbit/s, 23.976 fps
Аудио #01: 48 kHz, DTS-HD MA, 7.1, 4379 Kbps | Авторский | RUS |
Аудио #02: 48 kHz, DTS-HD MA, 7.1, 4319 Kbps | Оригинал | ENG |
Субтитры: Русские (форс. (на песни)), английские, французские

General
Unique ID : 70666971973383471998335827636074853811 (0x3529F6B7AEB2FAB205D2CDC6393835B3)
Complete name : D:The.Addams.Family.2019.BDREMUX.1080p.seleZen.mkv
Format : Matroska
Format version : Version 4
File size : 23.1 GiB
Duration : 1 h 27 min
Overall bit rate mode : Variable
Overall bit rate : 38.0 Mb/s
Movie name : The Addams Family 2019 from селезень
Encoded date : UTC 2020-01-30 13:14:08
Writing application : mkvmerge v41.0.0 ('Smarra') 64-bit
Writing library : libebml v1.3.9 + libmatroska v1.5.2

Video
ID : 1
Format : AVC
Format/Info : Advanced Video Codec
Format profile : High@L4.1
Format settings : CABAC / 2 Ref Frames
Format settings, CABAC : Yes
Format settings, Reference : 2 frames
Codec ID : V_MPEG4/ISO/AVC
Duration : 1 h 27 min
Bit rate mode : Variable
Bit rate : 29.3 Mb/s
Width : 1 920 pixels
Height : 1 080 pixels
Display aspect ratio : 16:9
Frame rate mode : Constant
Frame rate : 23.976 (24000/1001) FPS
Color space : YUV
Chroma subsampling : 4:2:0
Bit depth : 8 bits
Scan type : Progressive
Bits/(Pixel*Frame) : 0.589
Stream size : 17.8 GiB (77%)
Language : English
Default : Yes
Forced : No

Audio #1
ID : 2
Format : DTS XLL
Format/Info : Digital Theater Systems
Commercial name : DTS-HD Master Audio
Codec ID : A_DTS
Duration : 1 h 27 min
Bit rate mode : Variable
Bit rate : 4 379 kb/s
Channel(s) : 8 channels
Channel layout : C L R LFE Lb Rb Lss Rss
Sampling rate : 48.0 kHz
Frame rate : 93.750 FPS (512 SPF)
Bit depth : 24 bits
Compression mode : Lossless
Stream size : 2.66 GiB (12%)
Title : AVO (Kyberpunk)
Language : Russian
Default : Yes
Forced : Yes

Audio #2
ID : 3
Format : DTS XLL
Format/Info : Digital Theater Systems
Commercial name : DTS-HD Master Audio
Codec ID : A_DTS
Duration : 1 h 27 min
Bit rate mode : Variable
Bit rate : 4 319 kb/s
Channel(s) : 8 channels
Channel layout : C L R LFE Lb Rb Lss Rss
Sampling rate : 48.0 kHz
Frame rate : 93.750 FPS (512 SPF)
Bit depth : 24 bits
Compression mode : Lossless
Stream size : 2.63 GiB (11%)
Title : Original
Language : English
Default : No
Forced : No

Text #1
ID : 4
Format : UTF-8
Codec ID : S_TEXT/UTF8
Codec ID/Info : UTF-8 Plain Text
Duration : 53 min 24 s
Bit rate : 7 b/s
Count of elements : 56
Stream size : 2.81 KiB (0%)
Title : Songs (Kyberpunk)
Language : Russian
Default : Yes
Forced : Yes

Text #2
ID : 5
Format : UTF-8
Codec ID : S_TEXT/UTF8
Codec ID/Info : UTF-8 Plain Text
Duration : 1 h 25 min
Bit rate : 69 b/s
Count of elements : 1436
Stream size : 43.3 KiB (0%)
Title : Full
Language : English
Default : No
Forced : No

Text #3
ID : 6
Format : UTF-8
Codec ID : S_TEXT/UTF8
Codec ID/Info : UTF-8 Plain Text
Duration : 1 h 25 min
Bit rate : 72 b/s
Count of elements : 1228
Stream size : 45.6 KiB (0%)
Title : Full
Language : French
Default : No
Forced : No

Menu
00:00:00.000 : :Chapter 01
00:05:08.558 : :Chapter 02
00:10:35.468 : :Chapter 03
00:15:46.946 : :Chapter 04
00:19:35.257 : :Chapter 05
00:25:14.805 : :Chapter 06
00:29:25.764 : :Chapter 07
00:34:20.558 : :Chapter 08
00:39:46.968 : :Chapter 09
00:45:01.741 : :Chapter 10
00:49:07.611 : :Chapter 11
00:53:40.926 : :Chapter 12
00:56:36.560 : :Chapter 13
01:00:01.014 : :Chapter 14
01:03:45.947 : :Chapter 15
01:06:02.458 : :Chapter 16
01:10:54.584 : :Chapter 17
01:18:09.476 : :Chapter 18
01:20:21.316 : :Chapter 19
01:21:11.325 : :Chapter 20

Источник http://listRutor.org

Внимание! AdBlock блокирует показ скриншотов, все вопросы к разработчикам )))
Трекер:  [ 30-Янв-2020 21:30 ]

  

Скачать .torrent

Размер .torrent файла 29 KB


Размер: 23.1 GB
Хэш (hash) релиза: 5b096411f51a869bdfc23e634f992ec803fde4d2
Подписка на обновления:

Торренты, похожие на Семейка Аддамс The Addams Family скачать торрент

Форум Название Автор Размер S L Добавлен
Зарубежные фильмы до 2016 ·· Семейка Аддамс, Ценности семейки Аддамс / The Addams Family, Addams Family Values (Барри Зонненфельд / Barry Sonnenfeld) [1991, 1993, США, фэнтези, комедия, 2xDVD9 (Custom)] MVO + AVO + Original Eng Galfimbul ghost 98387099019.16 GB 0 0 1505073970

23:06

10-Сен-17

Зарубежные фильмы до 2016 ·· Семейка Аддамс, Ценности семейки Аддамс / The Addams Family, Addams Family Values (Барри Зонненфельд / Barry Sonnenfeld) [1991, 1993, Черная комедия, Фэнтези, HDTVRip 720p] 2*MVO + 3*AVO (Михалев, Сербин, Сонькин) + Original Eng Galfimbul ghost 1289728964512.01 GB 0 0 1311318883

10:14

22-Июл-11

Мультфильмы 2016-2020 (Новинки мультфильмов) ·%· Семейка Аддамс / The Addams Family (2019) BDRip-HEVC 1080p | Лицензия Galfimbul ghost 39677948443.7 GB 0 0 1587151321

22:22

17-Апр-20

Мультфильмы 2016-2020 (Новинки мультфильмов) ·%· Семейка Аддамс / The Addams Family (2019) BDRip-AVC | D, А | Лицензия Galfimbul ghost 23395535672.18 GB 0 0 1586706628

18:50

12-Апр-20

Мультфильмы 2016-2020 (Новинки мультфильмов) ·%· Семейка Аддамс / The Addams Family (2019) BDRip-AVC от OlLanDGroup | Лицензия Galfimbul ghost 782044909746 MB 0 0 1586682658

12:10

12-Апр-20

Мультфильмы 2016-2020 (Новинки мультфильмов) ·%· Семейка Аддамс / The Addams Family (2019) Blu-ray EUR 1080p | Лицензия Galfimbul ghost 3379548975931.47 GB 0 0 1586681531

11:52

12-Апр-20

Мультфильмы 2016-2020 (Новинки мультфильмов) ·%· Семейка Аддамс / The Addams Family (2019) BDRip 720p от ELEKTRI4KA | D, A | Лицензия Galfimbul ghost 75099203546.99 GB 0 0 1586677316

10:41

12-Апр-20

Мультфильмы 2016-2020 (Новинки мультфильмов) ·%· Семейка Аддамс / The Addams Family (2019) BDRip 1080p от ELEKTRI4KA | D, A | Лицензия Galfimbul ghost 104373355519.72 GB 0 0 1586677297

10:41

12-Апр-20

Мультфильмы 2016-2020 (Новинки мультфильмов) ·%· Семейка Аддамс / The Addams Family (2019) BDRemux 1080p от селезень | D, A | Лицензия Galfimbul ghost 2614397171524.35 GB 0 0 1586671233

09:00

12-Апр-20

Мультфильмы 2016-2020 (Новинки мультфильмов) ·%· Семейка Аддамс / The Addams Family (2019) UHD BDRemux 2160p от селезень | 4K | HDR | D, A | Лицензия Galfimbul ghost 5181982980148.26 GB 0 0 1586671222

09:00

12-Апр-20

Мультфильмы 2016-2020 (Новинки мультфильмов) ·%· Семейка Аддамс / The Addams Family (2019) BDRip 720p от селезень | Лицензия Galfimbul ghost 39451964083.67 GB 0 0 1586670166

08:42

12-Апр-20

Мультфильмы 2016-2020 (Новинки мультфильмов) ·%· Семейка Аддамс / The Addams Family (2019) BDRip 1080p от селезень | Лицензия Galfimbul ghost 87123806968.11 GB 0 0 1586668891

08:21

12-Апр-20

Мультфильмы 2016-2020 (Новинки мультфильмов) ·· Семейка Аддамс / The Addams Family (2019) HDRip | КПК | iTunes Galfimbul ghost 445344371425 MB 0 0 1583073610

17:40

1-Мар-20

Мультфильмы 2016-2020 (Новинки мультфильмов) ·· Семейка Аддамс / The Addams Family (2019) UHD BDRemux 2160p | HDR | D, А Galfimbul ghost 5056567623747.09 GB 0 0 1582791641

11:20

27-Фев-20

Мультфильмы 2016-2020 (Новинки мультфильмов) ·· Семейка Аддамс / The Addams Family (2019) BDRemux 1080p от селезень | D, A | iTunes Galfimbul ghost 2560036116023.84 GB 0 0 1581883831

23:10

16-Фев-20

Мультфильмы 2016-2020 (Новинки мультфильмов) ·· Семейка Аддамс / The Addams Family (2019) BDRip 1080p от селезень | D, A | iTunes Galfimbul ghost 97684412279.1 GB 0 0 1581882668

22:51

16-Фев-20

Мультфильмы 2016-2020 (Новинки мультфильмов) ·· Семейка Аддамс / The Addams Family (2019) BDRip 720p от селезень | D, A | iTunes Galfimbul ghost 68410208336.37 GB 0 0 1581882660

22:51

16-Фев-20

Мультфильмы 2016-2020 (Новинки мультфильмов) ·· Семейка Аддамс / The Addams Family (2019) BDRip от Twister & ExKinoRay | A Galfimbul ghost 15682961941.46 GB 0 0 1580755211

21:40

3-Фев-20

Мультфильмы 2016-2020 (Новинки мультфильмов) ·· Семейка Аддамс / The Addams Family (2019) BDRip 1080p от селезень | A Galfimbul ghost 93921782038.75 GB 0 0 1580410220

21:50

30-Янв-20

dpd RU

Еще никто не оставлял запись к записи скачать торрент Семейка Аддамс The Addams Family . Будь первым!

!Обратная связь