Скачать через торрент Теккен: Кровавая месть Tekken: Blood Vengeance бесплатно Аниме Все серии на русском torrent

Статистика раздачи
Размер:  701 MB   |    Зарегистрирован:  10 лет   |    .torrent скачан:  1236 раз   |   
Раздают:  1  
 

Скачать Теккен: Кровавая месть / Tekken: Blood Vengeance [Movie] [Без хардсаба] [RUS] [2011, Япония, Боевые искусства, фантастика, HDRip] VO @PD через torrent

 
 
Автор Сообщение

L



Теккен. Кровная месть / Tekken: Blood Vengeance

Страна: Япония
Жанр: Боевые искусства, фантастика
Год выпуска: 2011
Продолжительность: 01:32:10

Перевод: Одноголосый закадровый @PD
Cубтитры: нет
Режиссер: Ёичи Мори / Yoichi Mori

В ролях: Тиба Иссин, Юки Мацуока, Аманда Селин Миллер, Мамору Мияно, Рётаро Окиаю, Маая Сакамото, Масанори Шинохара, Хиденари Угаки, Акено Ватанабе

Описание: В фильме представлена альтернативная история, происходившая между событиями игр пятой и шестой частей. Лин Сяою, мастер китайских боевых искусств, получает задание от Анны Уильямс из корпорации G, находящейся под командованием Казуи Мисима. Задача Лин состоит в том, чтобы проникнуть в качестве шпиона в Международную академию Кегоку и найти там студента по имени Син Камия, который неоднократно пытался покончить с собой. После этого Лин встречает таинственную девушку по имени Алиса, и они продолжают расследование вместе. Они узнают, что Син был кем-то похищен. Сяою и Алиса хотят спасти Сина, для этого они начинают самостоятельное расследование. Но они узнают во владениях корпорации Мисима Дзайбацу тайные родственные заговоры с участием членов семьи Мисима — Дзина Кадзамы, Кадзуи Мисимы и по слухам скончавшегося Хэйхати Мисимы.

Сэмпл: http://multi-up.com/603102

Качество видео: HDRip (WEB-DL)
Формат видео: AVI

Видео: 720x400 (1.80:1), 23.976 fps, XviD MPEG-4 ~925 kbps avg, 0.13 bit/pixel
Аудио: 44.100 kHz, MPEG Layer 3, 2 ch, ~128.00 kbps avg
Format : AVI
Format/Info : Audio Video Interleave
File size : 701 MiB
Duration : 1h 32mn
Overall bit rate : 1 063 Kbps
Movie name : Теккен. Кровная месть - Tekken.Blood Vengeance (2011)
Release : @PD & KAMO
Writing application : VirtualDubMod 1.5.10.1 (build 2366/release)

Video
ID : 0
Format : MPEG-4 Visual
Format profile : Advanced Simple@L5
Format settings, BVOP : Yes
Format settings, QPel : No
Format settings, GMC : No warppoints
Format settings, Matrix : Default (H.263)
Muxing mode : Packed bitstream
Codec ID : XVID
Codec ID/Hint : XviD
Duration : 1h 32mn
Bit rate : 925 Kbps
Width : 720 pixels
Height : 400 pixels
Display aspect ratio : 16:9
Frame rate : 23.976 fps
Color space : YUV
Chroma subsampling : 4:2:0
Bit depth : 8 bits
Scan type : Progressive
Bits/(Pixel*Frame) : 0.134
Stream size : 610 MiB (87%)
Writing library : XviD 64

Audio
ID : 1
Format : MPEG Audio
Format version : Version 1
Format profile : Layer 3
Codec ID : 55
Codec ID/Hint : MP3
Duration : 1h 32mn
Bit rate mode : Constant
Bit rate : 128 Kbps
Channel(s) : 2 channels
Sampling rate : 44.1 KHz
Stream size : 84.4 MiB (12%)
Alignment : Split accross interleaves
Interleave, duration : 42 ms (1.00 video frame)
Interleave, preload duration : 500 ms
Релиз: от @PD &




Внимание! AdBlock блокирует показ скриншотов, все вопросы к разработчикам )))
Трекер:  [ 28-Ноя-2011 23:30 ]

  

Скачать .torrent

Размер .torrent файла 14 KB


Размер: 701 MB
Хэш (hash) релиза: 7de7db55a1f1b25ac7b128188d627b8dc4a01f76
Подписка на обновления:

Tatsumi Ichida

а в 3D будет когда-нибудь?

xtrins

красиво зделано (спосибо)

Хотите добавить комментарий к записи скачать торрент Теккен: Кровавая месть Tekken: Blood Vengeance

!Обратная связь