Скачать через торрент Как приручить дракона: Возвращение домой How to Train Your Dragon: Homecoming Фильм бесплатно в хорошем качестве torrent

Скачивайте на UnionPeer.org фильмы через торрент без регистрации. Новинки кино в хорошем качестве через торрент. На UnionPeer.org можно скачать через торрент фильмы 2014 и 2015 годов. Самые новые фильмы.

Скачать торрент Как приручить дракона: Возвращение домой How to Train Your Dragon: Homecoming бесплатно через .torrent фильм мультфильм сериал

Статистика раздачи
Размер:  716 MB   |    Зарегистрирован:  6 месяцев   |    .torrent скачан:  83 раза   |   
Раздают:  1  
 

Скачать Как приручить дракона: Возвращение домой / How to Train Your Dragon: Homecoming (2019) WEB-DL 1080p | D через torrent

 
Sprinthost
загрузка...
 
Автор Сообщение

Galfimbul ghost

avatar Galfimbul ghost


Как приручить дракона: Возвращение домой /How to Train Your Dragon: Homecoming

Год выхода: 2019
Жанр: Мультфильм, короткометражка, фэнтези, боевик, приключения, семейный
Режиссер: Тим Джонсон
В ролях: Джей Барушель, Америка Феррера, Крэйг Фергюсон, Кристофер Минц-Плассе, Лайам Фергюсон, Зак Перлман, Джерард Батлер, Джастин Руппл

О фильме:
Иккинг и Беззубик воссоединяются, чтобы напомнить викингам и драконам о неразрывной связи между ними.


Страна: США
Студия: DreamWorks Animation
Продолжительность: 00:21:27
Перевод: Профессиональный (полное дублирование) | канал СТС

Файл
Кодек: H264
Качество: WEB-DL 1080p
Видео: 4 500 kb/s, high L4.0, yuv420p, 1916x1076
Звук: AC3, 48 kHz, 2 ch, ~192.00 kbps avg | русский | СТС
Субтитры: нет
General
Unique ID : 219599019145387694570925867838896217521 (0xA5353B907575D85ABB706783A3C61DB1)
Complete name : C:12How to Train Your Dragon.Homecoming.2019.WEB-DL.1080p.D.mkv
Format : Matroska
Format version : Version 4
File size : 716 MiB
Duration : 21 min 27 s
Overall bit rate mode : Variable
Overall bit rate : 4 668 kb/s
Encoded date : UTC 2020-02-03 18:40:55
Writing application : mkvmerge v8.3.0 ('Over the Horizon') 64bit
Writing library : libebml v1.3.1 + libmatroska v1.4.2

Video
ID : 1
Format : AVC
Format/Info : Advanced Video Codec
Format profile : High@L4
Format settings : CABAC / 4 Ref Frames
Format settings, CABAC : Yes
Format settings, Reference fra : 4 frames
Codec ID : V_MPEG4/ISO/AVC
Duration : 21 min 27 s
Bit rate mode : Variable
Bit rate : 4 500 kb/s
Width : 1 916 pixels
Height : 1 076 pixels
Display aspect ratio : 16:9
Frame rate mode : Constant
Frame rate : 23.976 (24000/1001) FPS
Color space : YUV
Chroma subsampling : 4:2:0
Bit depth : 8 bits
Scan type : Progressive
Bits/(Pixel*Frame) : 0.091
Stream size : 687 MiB (96%)
Default : Yes
Forced : No

Audio
ID : 2
Format : AC-3
Format/Info : Audio Coding 3
Commercial name : Dolby Digital
Codec ID : A_AC3
Duration : 21 min 26 s
Bit rate mode : Constant
Bit rate : 192 kb/s
Channel(s) : 2 channels
Channel layout : L R
Sampling rate : 48.0 kHz
Frame rate : 31.250 FPS (1536 SPF)
Compression mode : Lossy
Stream size : 29.5 MiB (4%)
Service kind : Complete Main
Default : Yes
Forced : No
Источник http://listRutor.org

Внимание! AdBlock блокирует показ скриншотов, все вопросы к разработчикам )))
Трекер:  [ 03-Фев-2020 22:20 ]

  

Скачать .torrent

Размер .torrent файла 14 KB


Размер: 716 MB
Хэш (hash) релиза: ea41e60f5184af246d8fd82ff23ac195545b37b5
Подписка на обновления:

Торренты, похожие на Как приручить дракона: Возвращение домой How to Train Your Dragon: Homecoming скачать торрент

Форум Название Автор Размер S L Добавлен
Мультфильмы 2016-2020 (Новинки мультфильмов) ·· Как приручить дракона: Возвращение домой / How to Train Your Dragon: Homecoming (2019) WEB-DLRip 720p | D Galfimbul ghost 433472682413 MB 0 0 1580635823

12:30

2-Фев-20

Мультфильмы 2016-2020 (Новинки мультфильмов) ·· Как приручить дракона: Возвращение домой / How to Train Your Dragon: Homecoming (2019) WEB-DLRip | D Galfimbul ghost 321904640307 MB 0 0 1580568023

17:40

1-Фев-20

dpd RU

Еще никто не оставлял запись к записи скачать торрент Как приручить дракона: Возвращение домой How to Train Your Dragon: Homecoming . Будь первым!

!Обратная связь