Скачать через торрент Грех Il Peccato Фильм бесплатно в хорошем качестве torrent

Скачивайте на UnionPeer.org фильмы через торрент без регистрации. Новинки кино в хорошем качестве через торрент. На UnionPeer.org можно скачать через торрент фильмы 2014 и 2015 годов. Самые новые фильмы.

Скачать торрент Грех Il Peccato бесплатно через .torrent фильм мультфильм сериал

Статистика раздачи
Размер:  4.55 GB   |    Зарегистрирован:  14 дней   |    .torrent скачан:  104 раза   |   
Раздают:  2  
 

Скачать Грех / Il Peccato (2019) WEBRip 1080p | D через torrent

 
загрузка...
 
Автор Сообщение

Galfimbul ghost

avatar Galfimbul ghost


Грех / Il Peccato

Год выхода: 2019
Жанр: Драма, биография, история
Страна: Россия, Италия
Перевод: Дублированный | Онлайн кинотеатр
Продолжительность: 02:10:36
Режиссер: Андрей Кончаловский
В ролях: Альберто Тестоне, Якоб Диль, Франческо Гаудиелло, Адриано Кьярамида, Джанлука Гуиди, Орсо Мария Гуэррини, Александра Дейнега, Глен Блэкхолл, Анита Пититто, Массимо Де Франкович и др.

О фильме: Картина рассказывает об испытаниях на творческом пути гениального художника и скульптора Микеланджело Буонарроти, за преданность которого борются два самых могущественных семейства.



Файл
Качество: WEBRip 1080p
Видео: MPEG-4 AVC, 1920x1080, 5000 kbps, 25,000 fps
Звук: русский, AC3, 2.0 ch, 48 kHz, 192 kbps
Субтитры: нет
Общее
Уникальный идентификатор : 238105778109380991552071831571087403819 (0xB321813A86050E6E8EF6E352EF52AB2B)
Полное имя : G:Torrent2GrekhWEBRip1080p.mkv
Формат : Matroska
Версия формата : Version 4 / Version 2
Размер файла : 4,55 Гбайт
Продолжительность : 2 ч. 10 м.
Общий поток : 4992 Кбит/сек
Дата кодирования : UTC 2020-02-03 20:28:51
Программа кодирования : mkvmerge v9.5.0 ('Quiet Fire') 64bit
Библиотека кодирования : libebml v1.3.4 + libmatroska v1.4.5

Видео
Идентификатор : 1
Формат : AVC
Формат/Информация : Advanced Video Codec
Профиль формата : High@L4
Настройки формата : CABAC / 4 Ref Frames
Параметр CABAC формата : Да
Параметр RefFrames формата : 4 кадра
Идентификатор кодека : V_MPEG4/ISO/AVC
Продолжительность : 2 ч. 10 м.
Битрейт : 5000 Кбит/сек
Ширина : 1920 пикселей
Высота : 1080 пикселей
Соотношение сторон : 16:9
Режим частоты кадров : Постоянный
Частота кадров : 25,000 кадров/сек
Цветовое пространство : YUV
Субдискретизация насыщенности : 4:2:0
Битовая глубина : 8 бит
Тип развёртки : Прогрессивная
Бит/(Пиксели*Кадры) : 0.096
Размер потока : 4,38 Гбайт (96%)
Библиотека кодирования : x264 core 148 r2721 72d53ab
Настройки программы : cabac=1 / ref=4 / deblock=1:0:0 / analyse=0x3:0x133 / me=umh / subme=10 / psy=1 / psy_rd=1.00:0.00 / mixed_ref=1 / me_range=24 / chroma_me=1 / trellis=2 / 8x8dct=1 / cqm=0 / deadzone=21,11 / fast_pskip=1 / chroma_qp_offset=-2 / threads=34 / lookahead_threads=5 / sliced_threads=0 / nr=0 / decimate=1 / interlaced=0 / bluray_compat=0 / constrained_intra=0 / bframes=8 / b_pyramid=2 / b_adapt=2 / b_bias=0 / direct=3 / weightb=1 / open_gop=0 / weightp=2 / keyint=100 / keyint_min=50 / scenecut=40 / intra_refresh=0 / rc_lookahead=60 / rc=2pass / mbtree=1 / bitrate=5000 / ratetol=1.0 / qcomp=0.60 / qpmin=0 / qpmax=69 / qpstep=4 / cplxblur=20.0 / qblur=0.5 / vbv_maxrate=5500 / vbv_bufsize=2500 / nal_hrd=none / filler=0 / ip_ratio=1.40 / aq=1:1.00
Язык : Russian
Default : Да
Forced : Нет

Аудио
Идентификатор : 2
Формат : AC-3
Формат/Информация : Audio Coding 3
Параметр Endianness формата : Big
Идентификатор кодека : A_AC3
Продолжительность : 2 ч. 10 м.
Вид битрейта : Постоянный
Битрейт : 192 Кбит/сек
Каналы : 2 канала
Расположение каналов : Front: L R
Частота : 48,0 КГц
Частота кадров : 31,250 кадров/сек (1536 SPF)
Битовая глубина : 16 бит
Метод сжатия : С потерями
Размер потока : 179 Мбайт (4%)
Заголовок : rus
Язык : Russian
Default : Да
Forced : Нет
Релиз от:
Источник http://listRutor.org

Трекер:  [ 03-Фев-2020 23:40 ]

  

Скачать .torrent

Размер .torrent файла 12 KB


Размер: 4.55 GB
Хэш (hash) релиза: 0c61c081e251479eabd63092874b87d5611230f4
Подписка на обновления:

Торренты, похожие на Грех Il Peccato скачать торрент

Форум Название Автор Размер S L Добавлен
Зарубежные фильмы 2016-2020 (Новинки зарубежного кино) ·· Грех / Il Peccato (2019) WEB-DLRip-AVC от New-Team | iTunes Galfimbul ghost 27039978252.52 GB 0 0 1581694208

18:30

14-Фев-20

Еще никто не оставлял запись к записи скачать торрент Грех Il Peccato . Будь первым!

!Обратная связь