Скачать через торрент 21 мост 21 Bridges Фильм бесплатно в хорошем качестве torrent

Скачивайте на UnionPeer.org фильмы через торрент без регистрации. Новинки кино в хорошем качестве через торрент. На UnionPeer.org можно скачать через торрент фильмы 2014 и 2015 годов. Самые новые фильмы.

Скачать торрент 21 мост 21 Bridges бесплатно через .torrent фильм мультфильм сериал

Статистика раздачи
Размер:  3.72 GB   |    Зарегистрирован:  19 дней   |    .torrent скачан:  239 раз   |   
Раздают:  3  
 

Скачать 21 мост / 21 Bridges (2019) WEB-DL 1080p от селезень | iTunes через torrent

 
загрузка...
 
Автор Сообщение

Galfimbul ghost

avatar Galfimbul ghost


21 мост /21 Bridges

Год выхода: 2019
Жанр: Боевик, триллер, драма, криминал
Режиссер: Брайан Кирк
В ролях: Чэдвик Боузмэн, Сиенна Миллер, Тейлор Китч, Дж.К. Симмонс, Стэфан Джеймс, Кит Дэвид, Александр Сиддиг, Луис Канселми, Виктория Картахена, Гари Карр



О фильме: Он охотится на преступников, которые совершили на Манхэттене дерзкое ограбление, оставив после себя 8 мертвых полицейских. А продажные копы тем временем охотятся на него, пытаясь подставить. Но преступникам не скрыться, так как первый раз в истории Нью-Йорка полиция перекрыла все выходы с острова, в том числе 21 мост.

Страна: США
Студия: AGBO, Huayi Brothers, MWM Studios
Продолжительность: 01:39:26
Перевод: Дублированный | iTunes

Качество: WEB-DL 1080p
Видео: MPEG-4 AVC, 1912x798, 4590 Kbit/s, 24.000 fps
Аудио #01: 48 kHz, AC3, 5.1, 384 Kbps | iTunes | RUS |
Аудио #02: 48 kHz, AC3, 5.1, 384 Kbps | Оригинал | ENG |
Субтитры: Английские

General
Unique ID : 253839972988473922619784864806866524355 (0xBEF7CCEDF7A9DBBA32C6798A8E0818C3)
Complete name : D:21 Bridges.2019.WEB-DL.1080p.seleZen.mkv
Format : Matroska
Format version : Version 4
File size : 3.72 GiB
Duration : 1 h 39 min
Overall bit rate : 5 360 kb/s
Movie name : 21 Bridges 2019 from селезень
Encoded date : UTC 2020-02-03 20:46:24
Writing application : mkvmerge v40.0.0 ('Old Town Road + Pony') 64-bit
Writing library : libebml v1.3.9 + libmatroska v1.5.2

Video
ID : 1
Format : AVC
Format/Info : Advanced Video Codec
Format profile : High@L4
Format settings : CABAC / 5 Ref Frames
Format settings, CABAC : Yes
Format settings, Reference : 5 frames
Codec ID : V_MPEG4/ISO/AVC
Duration : 1 h 39 min
Bit rate : 4 590 kb/s
Width : 1 912 pixels
Height : 798 pixels
Display aspect ratio : 2.40:1
Frame rate mode : Constant
Frame rate : 24.000 FPS
Color space : YUV
Chroma subsampling : 4:2:0
Bit depth : 8 bits
Scan type : Progressive
Bits/(Pixel*Frame) : 0.125
Stream size : 3.19 GiB (86%)
Language : English
Default : Yes
Forced : No
Color range : Limited
Color primaries : BT.709
Transfer characteristics : BT.709
Matrix coefficients : BT.709

Audio #1
ID : 2
Format : AC-3
Format/Info : Audio Coding 3
Commercial name : Dolby Digital
Codec ID : A_AC3
Duration : 1 h 39 min
Bit rate mode : Constant
Bit rate : 384 kb/s
Channel(s) : 6 channels
Channel layout : L R C LFE Ls Rs
Sampling rate : 48.0 kHz
Frame rate : 31.250 FPS (1536 SPF)
Compression mode : Lossy
Stream size : 273 MiB (7%)
Title : Dubbing (iTunes)
Language : Russian
Service kind : Complete Main
Default : Yes
Forced : Yes

Audio #2
ID : 3
Format : AC-3
Format/Info : Audio Coding 3
Commercial name : Dolby Digital
Codec ID : A_AC3
Duration : 1 h 39 min
Bit rate mode : Constant
Bit rate : 384 kb/s
Channel(s) : 6 channels
Channel layout : L R C LFE Ls Rs
Sampling rate : 48.0 kHz
Frame rate : 31.250 FPS (1536 SPF)
Compression mode : Lossy
Stream size : 273 MiB (7%)
Title : Original
Language : English
Service kind : Complete Main
Default : No
Forced : No

Text
ID : 4
Format : UTF-8
Codec ID : S_TEXT/UTF8
Codec ID/Info : UTF-8 Plain Text
Duration : 1 h 32 min
Bit rate : 57 b/s
Count of elements : 1277
Stream size : 39.0 KiB (0%)
Title : SDH
Language : English
Default : No
Forced : No

Menu
00:00:00.000 : en:1
00:09:07.000 : en:2
00:21:25.000 : en:3
00:32:19.000 : en:4
00:43:16.000 : en:5
00:52:19.000 : en:6
01:01:41.000 : en:7
01:10:32.000 : en:8
01:18:38.000 : en:9
01:32:04.000 : en:10
Источник http://listRutor.org

Трекер:  [ 04-Фев-2020 00:00 ]

  

Скачать .torrent

Размер .torrent файла 5 KB


Размер: 3.72 GB
Хэш (hash) релиза: f394a8d72a0ee55aea8af720ff3ab53a45e59740
Подписка на обновления:

Торренты, похожие на 21 мост 21 Bridges скачать торрент

Форум Название Автор Размер S L Добавлен
Зарубежные фильмы 2016-2019 (Новинки зарубежного кино) ·· 21 мост / 21 Bridges (2019) BDRip-AVC | iTunes Galfimbul ghost 21752541502.03 GB 0 0 1581688207

16:50

14-Фев-20

Зарубежные фильмы 2016-2019 (Новинки зарубежного кино) ·· 21 мост / 21 Bridges (2019) BDRip-AVC от OlLanDGroup | iTunes Galfimbul ghost 782307204746 MB 0 0 1581660612

09:10

14-Фев-20

Зарубежные фильмы 2016-2019 (Новинки зарубежного кино) ·· 21 мост / 21 Bridges (2019) HDRip от MegaPeer | iTunes Galfimbul ghost 780821306745 MB 0 0 1581532208

21:30

12-Фев-20

Зарубежные фильмы 2016-2019 (Новинки зарубежного кино) ·· 21 мост / 21 Bridges (2019) BDRip-HEVC 1080p от HEVC-CLUB | iTunes Galfimbul ghost 69788579006.5 GB 2 0 1581352810

19:40

10-Фев-20

Зарубежные фильмы 2016-2019 (Новинки зарубежного кино) ·· 21 мост / 21 Bridges (2019) HDRip | iTunes Galfimbul ghost 786360320750 MB 0 0 1581279642

23:20

9-Фев-20

Зарубежные фильмы 2016-2019 (Новинки зарубежного кино) ·· 21 мост / 21 Bridges (2019) HDRip-AVC | iTunes Galfimbul ghost 19406977361.81 GB 0 0 1581270008

20:40

9-Фев-20

Зарубежные фильмы 2016-2019 (Новинки зарубежного кино) ·· 21 мост / 21 Bridges (2019) BDRemux 1080p от селезень | iTunes Galfimbul ghost 2637323156624.56 GB 0 0 1581253209

16:00

9-Фев-20

Зарубежные фильмы 2016-2019 (Новинки зарубежного кино) ·· 21 мост / 21 Bridges (2019) BDRip 720p от селезень | iTunes Galfimbul ghost 48574452484.52 GB 0 0 1581198007

00:40

9-Фев-20

Зарубежные фильмы 2016-2019 (Новинки зарубежного кино) ·· 21 мост / 21 Bridges (2019) BDRip 1080p от селезень | iTunes Galfimbul ghost 1164958198010.85 GB 0 0 1581100208

21:30

7-Фев-20

Зарубежные фильмы 2016-2019 (Новинки зарубежного кино) ·· 21 мост / 21 Bridges (2019) HDRip | iTunes Galfimbul ghost 23388751242.18 GB 0 0 1581039011

04:30

7-Фев-20

Зарубежные фильмы 2016-2019 (Новинки зарубежного кино) ·· 21 мост / 21 Bridges (2019) HDRip от Twister & ExKinoRay | iTunes Galfimbul ghost 15695234501.46 GB 2 5 1581018012

22:40

6-Фев-20

Зарубежные фильмы 2016-2019 (Новинки зарубежного кино) ·· 21 мост / 21 Bridges (2019) WEB-DLRip от Scarabey | iTunes Galfimbul ghost 15518576641.45 GB 1 5 1580923819

20:30

5-Фев-20

Зарубежные фильмы 2016-2019 (Новинки зарубежного кино) ·· 21 мост / 21 Bridges (2019) WEB-DLRip-AVC от OlLanDGroup | iTunes Galfimbul ghost 15650290221.46 GB 2 0 1580919012

19:10

5-Фев-20

Зарубежные фильмы 2016-2019 (Новинки зарубежного кино) ·· 21 мост / 21 Bridges (2019) WEB-DLRip-AVC | iTunes Galfimbul ghost 19253341321.79 GB 1 8 1580859609

02:40

5-Фев-20

Зарубежные фильмы 2016-2019 (Новинки зарубежного кино) ·· 21 мост / 21 Bridges (2019) WEB-DLRip-AVC от ExKinoRay | iTunes Galfimbul ghost 15541366641.45 GB 0 0 1580848808

23:40

4-Фев-20

Зарубежные фильмы 2016-2019 (Новинки зарубежного кино) ·· 21 мост / 21 Bridges (2019) WEB-DL 1080p от селезень | iTunes Galfimbul ghost 76529601777.13 GB 2 0 1580832607

19:10

4-Фев-20

Зарубежные фильмы 2016-2019 (Новинки зарубежного кино) ·· 21 мост / 21 Bridges (2019) WEB-DLRip от k.e.n & MegaPeer | iTunes Galfimbul ghost 786266112750 MB 1 7 1580811608

13:20

4-Фев-20

Зарубежные фильмы 2016-2019 (Новинки зарубежного кино) ·· 21 мост / 21 Bridges (2019) WEB-DLRip от MegaPeer | iTunes Galfimbul ghost 15683665921.46 GB 0 0 1580763612

00:00

4-Фев-20

Еще никто не оставлял запись к записи скачать торрент 21 мост 21 Bridges . Будь первым!

!Обратная связь