Скачать через торрент Девушка в поезде The Girl on the Train Фильм бесплатно в хорошем качестве torrent

Скачивайте на UnionPeer.org фильмы через торрент без регистрации. Новинки кино в хорошем качестве через торрент. На UnionPeer.org можно скачать через торрент фильмы 2014 и 2015 годов. Самые новые фильмы.

Скачать торрент Девушка в поезде The Girl on the Train бесплатно через .torrent фильм мультфильм сериал

Статистика раздачи
Размер:  11.46 GB   |    Зарегистрирован:  4 года   |    .torrent скачан:  41 раз   |   
Раздают:  1  
 

Скачать Девушка в поезде / The Girl on the Train (2016) BDRip 1080p от KORSAR | D, A через torrent

 
 
Автор Сообщение

Galfimbul

avatar Galfimbul


Девушка в поезде
The Girl on the Train
«Чужие тайны могут быть опасны»
Страна: США
Жанр: триллер, драма, детектив
Год выпуска: 2016
Продолжительность: 01:52:19
Перевод: Профессиональный (полное дублирование), 2 x Авторский
Субтитры: русские, английские.
Режиссер: Тейт Тейлор / Tate Taylor
В ролях: Эмили Блант (Rachel), Хейли Беннетт (Megan), Ребекка Фергюсон (Anna), Джастин Теру (Tom), Люк Эванс (Scott), Эдгар Рамирес (Dr. Kamal Abdic), Лора Припон (Cathy), Эллисон Дженни (Detective Riley), Даррен Голдштейн (Man in the Suit), Лиза Кудроу (Martha), Клета Элейн Эллингтон (Oyster Bar Woman), Лана Янг (Doctor)
Описание: Каждый день поезд проносит Рэйчел мимо очаровательного коттеджа, где живет идеальная на первый взгляд пара. Но однажды идиллия разрушится - прекрасная незнакомка бесследно исчезнет. Рэйчел окажется втянута в весьма запутанную историю, ведь только она видела из окна то, что было скрыто ото всех.

MPAA: R - Лицам до 17 лет обязательно присутствие взрослого
Семпл

Качество: BDRip 1080p
Контейнер: MKV

Видео: AVC, 1920x1036 (1.85:1), 12500 kbps, 23,976 fps, 0,262 bpp
Аудио №1: русский / AC3 / 5.1 / 48 kHz / 640 kbps / Дубляж
Аудио №2: русский / AC3 / 5.1 / 48 kHz / 448 kbps / AVO ( Немахов )
Аудио №3: русский / AC3 / 5.1 / 48 kHz / 384 kbps / AVO ( Гаврилов )
Аудио №4: английский / AC3 / 5.1 / 48 kHz / 640 kbps
Навигация по главам: есть
Формат : Matroska
Версия формата : Version 2
Размер файла : 11,5 Гбайт
Продолжительность : 1 ч. 52 м.
Общий поток : 14,6 Мбит/сек
Название фильма : = Девушка в поезде / The Girl on the Train (2016) BDRip 1080p - KORSAR =
Дата кодирования : UTC 2017-11-03 10:58:28
Программа кодирования : mkvmerge v5.8.0 ('No Sleep / Pillow') built on Sep 2 2012 15:37:04
Библиотека кодирования : libebml v1.2.3 + libmatroska v1.3.0
Attachment : Yes

Видео
Идентификатор : 1
Формат : AVC
Формат/Информация : Advanced Video Codec
Профиль формата : [email protected]
Параметр CABAC формата : Да
Параметр ReFrames формата : 4 кадра
Идентификатор кодека : V_MPEG4/ISO/AVC
Продолжительность : 1 ч. 52 м.
Битрейт : 12,5 Мбит/сек
Ширина : 1920 пикселей
Высота : 1036 пикселей
Соотношение сторон : 1,85:1
Режим частоты кадров : Постоянный
Частота кадров : 23,976 кадра/сек
Цветовое пространство : YUV
Субдискретизация насыщенности : 4:2:0
Битовая глубина : 8 бит
Тип развёртки : Прогрессивная
Бит/(Пиксели*Кадры) : 0.262
Размер потока : 9,58 Гбайт (84%)
Заголовок : Девушка в поезде / The Girl on the Train (2016) BDRip 1080p - KORSAR
Библиотека кодирования : x264 core 148 r2744kMod b97ae06
Настройки программы : cabac=1 / ref=4 / deblock=1:-3:-3 / analyse=0x3:0x113 / me=umh / subme=11 / psy=1 / fade_compensate=0.00 / psy_rd=0.95:0.00 / mixed_ref=1 / me_range=32 / chroma_me=1 / trellis=2 / 8x8dct=1 / cqm=0 / deadzone=21,11 / fast_pskip=0 / chroma_qp_offset=-2 / threads=12 / lookahead_threads=2 / sliced_threads=0 / nr=0 / decimate=0 / interlaced=0 / bluray_compat=0 / constrained_intra=0 / bframes=8 / b_pyramid=2 / b_adapt=2 / b_bias=0 / direct=3 / weightb=1 / open_gop=0 / weightp=2 / keyint=240 / keyint_min=23 / scenecut=40 / intra_refresh=0 / rc_lookahead=60 / rc=2pass / mbtree=0 / bitrate=12500 / ratetol=1.0 / qcomp=0.60 / qpmin=0 / qpmax=39 / qpstep=4 / cplxblur=20.0 / qblur=0.5 / vbv_maxrate=50000 / vbv_bufsize=62500 / nal_hrd=none / filler=0 / ip_ratio=1.40 / pb_ratio=1.30 / aq=1:1.00
Язык : English
Default : Да
Forced : Нет
Основные цвета : BT.709
Характеристики трансфера : BT.709
Коэффициенты матрицы : BT.709

Аудио #1
Идентификатор : 2
Формат : AC-3
Формат/Информация : Audio Coding 3
Расширение режима : CM (complete main)
Параметр Endianness формата : Big
Идентификатор кодека : A_AC3
Продолжительность : 1 ч. 52 м.
Вид битрейта : Постоянный
Битрейт : 640 Кбит/сек
Каналы : 6 каналов
Расположение каналов : Front: L C R, Side: L R, LFE
Частота : 48,0 КГц
Битовая глубина : 16 бит
Метод сжатия : С потерями
Размер потока : 514 Мбайт (4%)
Заголовок : Дубляж
Язык : Russian
Default : Да
Forced : Нет

Аудио #2
Идентификатор : 3
Формат : AC-3
Формат/Информация : Audio Coding 3
Расширение режима : CM (complete main)
Параметр Endianness формата : Big
Идентификатор кодека : A_AC3
Продолжительность : 1 ч. 52 м.
Вид битрейта : Постоянный
Битрейт : 448 Кбит/сек
Каналы : 6 каналов
Расположение каналов : Front: L C R, Side: L R, LFE
Частота : 48,0 КГц
Битовая глубина : 16 бит
Метод сжатия : С потерями
Размер потока : 360 Мбайт (3%)
Заголовок : AVO ( Немахов )
Язык : Russian
Default : Нет
Forced : Нет

Аудио #3
Идентификатор : 4
Формат : AC-3
Формат/Информация : Audio Coding 3
Расширение режима : CM (complete main)
Параметр Endianness формата : Big
Идентификатор кодека : A_AC3
Продолжительность : 1 ч. 52 м.
Вид битрейта : Постоянный
Битрейт : 384 Кбит/сек
Каналы : 6 каналов
Расположение каналов : Front: L C R, Side: L R, LFE
Частота : 48,0 КГц
Битовая глубина : 16 бит
Метод сжатия : С потерями
Размер потока : 309 Мбайт (3%)
Заголовок : AVO ( Гаврилов )
Язык : Russian
Default : Нет
Forced : Нет

Аудио #4
Идентификатор : 5
Формат : AC-3
Формат/Информация : Audio Coding 3
Расширение режима : CM (complete main)
Параметр Endianness формата : Big
Идентификатор кодека : A_AC3
Продолжительность : 1 ч. 52 м.
Вид битрейта : Постоянный
Битрейт : 640 Кбит/сек
Каналы : 6 каналов
Расположение каналов : Front: L C R, Side: L R, LFE
Частота : 48,0 КГц
Битовая глубина : 16 бит
Метод сжатия : С потерями
Размер потока : 514 Мбайт (4%)
Язык : English
Default : Нет
Forced : Нет

Текст #1
Идентификатор : 6
Формат : UTF-8
Идентификатор кодека : S_TEXT/UTF8
Идентификатор кодека/Информация : UTF-8 Plain Text
Заголовок : Forced
Язык : Russian
Default : Да
Forced : Да

Текст #2
Идентификатор : 7
Формат : UTF-8
Идентификатор кодека : S_TEXT/UTF8
Идентификатор кодека/Информация : UTF-8 Plain Text
Язык : Russian
Default : Нет
Forced : Нет

Текст #3
Идентификатор : 8
Формат : UTF-8
Идентификатор кодека : S_TEXT/UTF8
Идентификатор кодека/Информация : UTF-8 Plain Text
Язык : English
Default : Нет
Forced : Нет

Текст #4
Идентификатор : 9
Формат : UTF-8
Идентификатор кодека : S_TEXT/UTF8
Идентификатор кодека/Информация : UTF-8 Plain Text
Язык : English
Default : Нет
Forced : Нет

Меню
00:00:00.000 : en:Chapter 01
00:05:58.816 : en:Chapter 02
00:09:26.941 : en:Chapter 03
00:18:13.008 : en:Chapter 04
00:25:23.188 : en:Chapter 05
00:32:01.544 : en:Chapter 06
00:37:02.011 : en:Chapter 07
00:44:49.353 : en:Chapter 08
00:49:19.498 : en:Chapter 09
00:55:04.050 : en:Chapter 10
00:59:33.069 : en:Chapter 11
01:03:31.849 : en:Chapter 12
01:09:22.825 : en:Chapter 13
01:14:33.469 : en:Chapter 14
01:19:05.741 : en:Chapter 15
01:23:41.766 : en:Chapter 16
01:28:04.529 : en:Chapter 17
01:33:46.495 : en:Chapter 18
01:38:51.592 : en:Chapter 19
01:45:52.220 : en:Chapter 20
01:52:19.733 : en:Chapter 21

Источник http://listRutor.org

Внимание! AdBlock блокирует показ скриншотов, все вопросы к разработчикам )))
Трекер:  [ 05-Фев-2020 06:50 ]

  

Скачать .torrent

Размер .torrent файла 57 KB


Размер: 11.46 GB
Хэш (hash) релиза: e628a935ca8bb7cc80a41bb9f2a82d16f4b3d7db
Подписка на обновления:

Торренты, похожие на Девушка в поезде The Girl on the Train скачать торрент

Форум Название Автор Размер S L Добавлен
Зарубежные фильмы до 2016 ·· Девушка в поезде / The Girl on the Train (Тейт Тейлор / Tate Taylor) [2016, США, Триллер, драма, криминал, детектив, DVD5 (сжатый)] исх. R5, Dub + Sub Rus + Original Eng Galfimbul 46975283204.37 GB 0 0 1527580890

11:01

29-Май-18

Зарубежные фильмы до 2016 ·· Девушка в поезде / The Girl on the Train (Тейт Тейлор / Tate Taylor) [2016, США, Триллер, драма, криминал, детектив, DVD9] R5 Dub + Sub Rus + Original Eng Galfimbul 83412930567.77 GB 0 0 1524751352

17:02

26-Апр-18

Зарубежные фильмы 2016-2019 (Новинки зарубежного кино) ·· Девушка в поезде / The Girl on the Train (Тейт Тейлор / Tate Taylor) [2016, США, триллер, драма, детектив, HDRip] AVO (Немахов) Galfimbul 15686164481.46 GB 0 0 1508868090

21:01

24-Окт-17

Зарубежные фильмы 2016-2019 (Новинки зарубежного кино) ·· Девушка в поезде / The Girl on the Train (Тейт Тейлор / Tate Taylor) [2016, США, триллер, драма, детектив, BDRip] AVO (Гаврилов) Galfimbul 15660032001.46 GB 0 0 1505196083

09:01

12-Сен-17

Зарубежные фильмы до 2016 ·· Девушка в поезде / The Girl on the Train (Тейт Тейлор / Tate Taylor) [2016, США, триллер, драма, детектив, BDRemux 1080p] Dub + Original (Eng) + Sub (Rus, Eng) Galfimbul 3190923155629.72 GB 0 0 1491238519

19:55

3-Апр-17

Трейлеры и дополнительные материалы ·· Девушка в Поезде / The Girl on the Train (Тейт Тейлор / Tate Taylor) [2016, Триллер | Детектив, BDRip 720p] дополнительные материалы Galfimbul 1044547460996 MB 0 0 1486313483

19:51

5-Фев-17

Зарубежные фильмы 2016-2019 (Новинки зарубежного кино) ·· Девушка в поезде / The Girl on the Train (Тейт Тейлор / Tate Taylor) [2016, США, триллер, драма, детектив, DVD9] Custom Galfimbul 76789043207.15 GB 0 0 1486289702

13:15

5-Фев-17

Зарубежные фильмы до 2016 ·· Девушка в поезде / The Girl on the Train (Тейт Тейлор / Tate Taylor) [2016, США, триллер, драма, детектив, BDRip 720p] Dub + Sub Rus, Eng + Original Eng Galfimbul 100875943309.39 GB 0 0 1486053504

19:38

2-Фев-17

Зарубежные фильмы до 2016 ·· Девушка в поезде / The Girl on the Train (Тейт Тейлор / Tate Taylor) [2016, США, триллер, драма, детектив, Blu-ray disc 1080p] [EUR] Dub + Sub Rus, Eng + Original Eng Galfimbul 4548905229042.36 GB 0 0 1485708924

19:55

29-Янв-17

Зарубежные фильмы до 2016 ·· Девушка в поезде / The Girl on the Train (Тейт Тейлор / Tate Taylor) [2016, США, триллер, драма, детектив, BDRip 1080p] Dub + Sub Rus, Eng + Original Eng Galfimbul 1793491208416.7 GB 0 0 1485507759

12:02

27-Янв-17

Зарубежные фильмы 2016-2019 (Новинки зарубежного кино) ·· Девушка в поезде / The Girl on the Train (Тейт Тейлор / Tate Taylor) [2016, США, триллер, драма, детектив, Blu-Ray EUR] Лицензия Galfimbul 4548905229042.36 GB 0 0 1485493827

08:10

27-Янв-17

Зарубежные фильмы 2016-2019 (Новинки зарубежного кино) ·· Девушка в поезде / The Girl on the Train (Тейт Тейлор / Tate Taylor) [2016, США, триллер, драма, детектив, HDRip] Dub + Original + Subs (rus,eng) Galfimbul 23534679352.19 GB 0 0 1485431589

14:53

26-Янв-17

Зарубежные фильмы 2016-2019 (Новинки зарубежного кино) ·· Девушка в поезде / The Girl on the Train (Тейт Тейлор / Tate Taylor) [2016, США, триллер, драма, детектив, BDRip-AVC] Dub + Original + Sub (rus, eng) Galfimbul 23150032232.16 GB 0 0 1485421034

11:57

26-Янв-17

Зарубежные фильмы 2016-2019 (Новинки зарубежного кино) ·· Девушка в поезде / The Girl on the Train (Тейт Тейлор / Tate Taylor) [2016, США, триллер, драма, детектив, HDRip-AVC] Dub + Original + Sub (eng) Galfimbul 23503351312.19 GB 0 0 1484234816

18:26

12-Янв-17

Зарубежные фильмы 2016-2019 (Новинки зарубежного кино) ·· Девушка в поезде / The Girl on the Train (Тейт Тейлор / Tate Taylor) [2016, США, триллер, драма, детектив, HDRip] Dub + Original Galfimbul 22994247682.14 GB 0 0 1484234803

18:26

12-Янв-17

Зарубежные фильмы до 2016 ·· Девушка в поезде / The Girl on the Train (Тейт Тейлор / Tate Taylor) [2016, США, триллер, драма, детектив, BDRip 1080p] Dub (iTunes) + Sub Eng + Original Eng Galfimbul 1251896873011.66 GB 0 0 1483642240

21:50

5-Янв-17

Зарубежные фильмы до 2016 ·· Девушка в поезде / The Girl on the Train (Тейт Тейлор / Tate Taylor) [2016, США, триллер, драма, детектив, BDRip 720p] Dub (iTunes) + Sub Eng + Original Eng Galfimbul 52699917294.91 GB 0 0 1483636809

20:20

5-Янв-17

Зарубежные фильмы 2016-2019 (Новинки зарубежного кино) ·· Девушка в поезде / The Girl on the Train (Тейт Тейлор / Tate Taylor) [2016, США, триллер, драма, детектив, WEB-DLRip] Dub (iTunes) Galfimbul 15659622401.46 GB 0 0 1483442270

14:17

3-Янв-17

Зарубежные фильмы 2016-2019 (Новинки зарубежного кино) ·· Девушка в поезде / The Girl on the Train (Тейт Тейлор / Tate Taylor) [2016, США, триллер, драма, детектив, WEB-DLRip] Dub (iTunes) Galfimbul 783528464747 MB 0 0 1483442264

14:17

3-Янв-17

Еще никто не оставлял запись к записи скачать торрент Девушка в поезде The Girl on the Train . Будь первым!

!Обратная связь