Скачать через торрент Сквозь чёрное стекло Фильм бесплатно в хорошем качестве torrent

Скачивайте на UnionPeer.org фильмы через торрент без регистрации. Новинки кино в хорошем качестве через торрент. На UnionPeer.org можно скачать через торрент фильмы 2014 и 2015 годов. Самые новые фильмы.

Скачать торрент Сквозь чёрное стекло бесплатно через .torrent фильм мультфильм сериал

Статистика раздачи
Размер:  1.99 GB   |    Зарегистрирован:  5 месяцев 27 дней   |    .torrent скачан:  24 раза   |   
Раздают:  1  
 

Скачать Сквозь чёрное стекло (2019) WEB-DLRip от New-Team | iTunes через torrent

 
Sprinthost
загрузка...
 
Автор Сообщение

Galfimbul ghost

avatar Galfimbul ghost


Сквозь чёрное стекло



[b]Год выхода:
2019
Жанр: Драма
Режиссер: Константин Лопушанский
В ролях: Максим Суханов, Василиса Денисова, Надежда Маркина, Ольга Онищенко, Андрей Полищук, Анна Екатерининская, Елена Зимина, Анна Дулова, Александра Мамкаева, Алексей Манцыгин

О фильме: Настя живет в девичьем приюте для слабовидящих при монастыре и собирается посвятить себя Богу. Однако в дело вмешивается случай, чью природу, божественную или дьявольскую, она постичь не в силах. Незнакомый богач Михаил Островой предлагает Насте оплатить дорогостоящую операцию в Германии, которая вернет ей зрение, после чего девушка будет должна выйти замуж за щедрого спонсора.
Что будет дальше, догадаться нетрудно. Жизнь впотьмах в российской нищей глубинке сменяется сказочной заграницей – такой яркой и светлой, что несложно ощутить подвох. Темнота не всегда означает сатанинское и злое, ведь, как известно, носителем света является Люцифер. Нетрудно увидеть его в расточительном и монструозном лысом амбале, который сравнивает себя с царем и больше всего ценит свою власть над миром.
General
Complete name : D:2020 рипыФабрика грезSkvoz.chernoe.steklo.2019.XviD.WEB-DLRip-Lumina-New-team.avi
Format : AVI
Format/Info : Audio Video Interleave
Format profile : OpenDML
File size : 1.99 GiB
Duration : 2 h 19 min
Overall bit rate : 2 053 kb/s
Writing application : VirtualDubMod 1.5.10.3 | www.virtualdub-fr.org || (build 2550/release)
Writing library : VirtualDubMod build 2550/release

Video
ID : 0
Format : MPEG-4 Visual
Format profile : Advanced Simple@L5
Format settings : BVOP1 / Custom Matrix
Format settings, BVOP : 1
Format settings, QPel : No
Format settings, GMC : No warppoints
Format settings, Matrix : Custom
Codec ID : XVID
Codec ID/Hint : XviD
Duration : 2 h 19 min
Bit rate : 1 656 kb/s
Width : 720 pixels
Height : 400 pixels
Display aspect ratio : 16:9
Frame rate : 25.000 FPS
Color space : YUV
Chroma subsampling : 4:2:0
Bit depth : 8 bits
Scan type : Progressive
Compression mode : Lossy
Bits/(Pixel*Frame) : 0.230
Stream size : 1.61 GiB (81%)
Writing library : XviD 1.2.1 (UTC 2008-12-04)

Audio
ID : 1
Format : AC-3
Format/Info : Audio Coding 3
Codec ID : 2000
Duration : 2 h 19 min
Bit rate mode : Constant
Bit rate : 384 kb/s
Channel(s) : 6 channels
Channel positions : Front: L C R, Side: L R, LFE
Sampling rate : 48.0 kHz
Frame rate : 31.250 FPS (1536 SPF)
Bit depth : 16 bits
Compression mode : Lossy
Stream size : 382 MiB (19%)
Alignment : Split accross interleaves
Interleave, duration : 40 ms (1.00 video frame)
Interleave, preload duratio : 500 ms
Service kind : Complete Main


Страна: Россия
Студия: Proline Film
Продолжительность: 02:19:08
Язык: Русский

Файл
Кодек: XviD
Качество: WEB-DLRip
Видео: 720x400, 16/9, 25.000 fps, 1656 Кбит/с
Звук: AC3, 48.0 KHz, 6 ch, 384 Кбит/с

Семпл Источник http://listRutor.org

Внимание! AdBlock блокирует показ скриншотов, все вопросы к разработчикам )))
Трекер:  [ 11-Фев-2020 16:00 ]

  

Скачать .torrent

Размер .torrent файла 20 KB


Размер: 1.99 GB
Хэш (hash) релиза: dfce243ee529667248d2b8b7b39b74e2a47e5ad6
Подписка на обновления:

Торренты, похожие на Сквозь чёрное стекло скачать торрент

Форум Название Автор Размер S L Добавлен
Российские фильмы 2016-2020 (Новинки русского кино) ·· Сквозь чёрное стекло (2019) WEB-DLRip-AVC от New-Team | iTunes Galfimbul ghost 25428607592.37 GB 0 0 1581591025

13:50

13-Фев-20

Российские фильмы 2016-2020 (Новинки русского кино) ·· Сквозь чёрное стекло (2019) WEB-DLRip от GeneralFilm | iTunes Galfimbul ghost 15659622401.46 GB 0 0 1581377439

02:30

11-Фев-20

Российские фильмы 2016-2020 (Новинки русского кино) ·· Сквозь чёрное стекло (2019) WEB-DL 1080p | iTunes Galfimbul ghost 58873875595.48 GB 0 0 1581356433

20:40

10-Фев-20

dpd RU

Еще никто не оставлял запись к записи скачать торрент Сквозь чёрное стекло . Будь первым!

!Обратная связь