Скачать через торрент Полицейский с Рублёвки. Новогодний беспредел 2 Фильм бесплатно в хорошем качестве torrent

Скачивайте на UnionPeer.org фильмы через торрент без регистрации. Новинки кино в хорошем качестве через торрент. На UnionPeer.org можно скачать через торрент фильмы 2014 и 2015 годов. Самые новые фильмы.

Скачать торрент Полицейский с Рублёвки. Новогодний беспредел 2 бесплатно через .torrent фильм мультфильм сериал

Статистика раздачи
Размер:  1.37 GB   |    Зарегистрирован:  5 месяцев 28 дней   |    .torrent скачан:  157 раз   |   
Раздают:  1  
 

Скачать Полицейский с Рублёвки. Новогодний беспредел 2 (2019) WEB-DLRip от Files-x через torrent

 
Sprinthost
загрузка...
 
Автор Сообщение

Galfimbul ghost

avatar Galfimbul ghost


Полицейский с Рублёвки. Новогодний беспредел 2



[b]Год выпуска:
2019
Жанр: Комедия
Режиссер: Илья Куликов
В ролях: Александр Петров (III), Сергей Бурунов, Александра Бортич, Татьяна Бабенкова, Софья Каштанова, Роман Попов, Рина Гришина, Ирина Вилкова, Ростислав Гулбис, Сергей Штатнов, Александр Дерепко, Сергей Комаров (II)

О фильме Близится Новый год, и сотрудники отдела полиции Барвихи планируют праздновать его за городом в компании старых друзей и коллег. Но непредвиденные обстоятельства в лице преступников, ограбивших крупное ювелирное предприятие, ставят праздник под угрозу. Смогут ли рублёвские полицейские вернуть украденные драгоценные камни стоимостью в миллионы долларов и спасти Новый год до того, как часы пробьют полночь?



Выпущено: Россия
Студия: Legio Felix по заказу телеканала ТНТ
Продолжительность: 01:20:56
Перевод: Не требуется

Файл
Качество: WEB-DLRip
Видео: XviD, ~ 2227 Кбит/с, 720x304
Аудио: AC3, 2 ch, 192 Кбит/с
General
Complete name : C:UsersuserDownloadsVideoПолицейский с Рублёвки. Новогодний беспредел .2019.WEB-DLRip. Files-x.avi
Format : AVI
Format/Info : Audio Video Interleave
File size : 1.37 GiB
Duration : 1h 20mn
Overall bit rate : 2 428 Kbps
Writing application : VirtualDubMod 1.5.10.3 | www.virtualdub-fr.org || (build 2550/release)
Writing library : VirtualDubMod build 2550/release

Video
ID : 0
Format : MPEG-4 Visual
Format profile : Advanced Simple@L5
Format settings, BVOP : 1
Format settings, QPel : No
Format settings, GMC : No warppoints
Format settings, Matrix : Custom
Codec ID : XVID
Codec ID/Hint : XviD
Duration : 1h 20mn
Bit rate : 2 227 Kbps
Width : 720 pixels
Height : 304 pixels
Display aspect ratio : 2.35:1
Frame rate : 25.000 fps
Color space : YUV
Chroma subsampling : 4:2:0
Bit depth : 8 bits
Scan type : Progressive
Compression mode : Lossy
Bits/(Pixel*Frame) : 0.407
Stream size : 1.26 GiB (92%)
Writing library : XviD 73

Audio
ID : 1
Format : AC-3
Format/Info : Audio Coding 3
Mode extension : CM (complete main)
Codec ID : 2000
Duration : 1h 20mn
Bit rate mode : Constant
Bit rate : 192 Kbps
Channel(s) : 2 channels
Channel positions : Front: L R
Sampling rate : 48.0 KHz
Bit depth : 16 bits
Compression mode : Lossy
Stream size : 111 MiB (8%)
Alignment : Split accross interleaves
Interleave, duration : 40 ms (1.00 video frame)
Interleave, preload duration : 500 ms
Источник http://listRutor.org

Внимание! AdBlock блокирует показ скриншотов, все вопросы к разработчикам )))
Трекер:  [ 13-Фев-2020 13:10 ]

  

Скачать .torrent

Размер .torrent файла 14 KB


Размер: 1.37 GB
Хэш (hash) релиза: 69e3fabbb4e63f776d0208bca590239ddccefdf3
Подписка на обновления:

Торренты, похожие на Полицейский с Рублёвки. Новогодний беспредел 2 скачать торрент

Форум Название Автор Размер S L Добавлен
Российские фильмы 2016-2020 (Новинки русского кино) ·· Полицейский с Рублёвки. Новогодний беспредел 2 (2019) WEB-DLRip от Portablius Galfimbul ghost 780097536744 MB 0 0 1581766819

14:40

15-Фев-20

Российские фильмы 2016-2020 (Новинки русского кино) ·· Полицейский с Рублёвки. Новогодний беспредел 2 (2019) WEB-DLRip от GeneralFilm Galfimbul ghost 11676958721.09 GB 0 0 1581607811

18:30

13-Фев-20

Российские фильмы 2016-2020 (Новинки русского кино) ·· Полицейский с Рублёвки. Новогодний беспредел 2 (2019) WEB-DLRip от Generalfilm | КПК Galfimbul ghost 322457629308 MB 0 0 1581587452

12:50

13-Фев-20

Российские фильмы 2016-2020 (Новинки русского кино) ·· Полицейский с Рублёвки. Новогодний беспредел 2 (2019) WEB-DLRip-AVC от Files-х Galfimbul ghost 14682863001.37 GB 0 0 1581585038

12:10

13-Фев-20

Российские фильмы 2016-2020 (Новинки русского кино) ·· Полицейский с Рублёвки. Новогодний беспредел-2 (2019) WEB-DLRip-AVC от ExKinoRay Galfimbul ghost 13306039891.24 GB 0 0 1581546645

01:30

13-Фев-20

Российские фильмы 2016-2020 (Новинки русского кино) ·· Полицейский с Рублёвки. Новогодний беспредел 2 (2019) WEB-DLRip Galfimbul ghost 14710251521.37 GB 0 0 1581544238

00:50

13-Фев-20

Российские фильмы 2016-2020 (Новинки русского кино) ·· Полицейский с Рублёвки. Новогодний беспредел-2 (2019) WEB-DL 1080p от ExKinoRay Galfimbul ghost 19295849301.8 GB 0 0 1581543036

00:30

13-Фев-20

Российские фильмы 2016-2020 (Новинки русского кино) ·· Полицейский с Рублёвки. Новогодний беспредел 2 (2019) WEB-DL 1080p Galfimbul ghost 28398940882.64 GB 0 0 1581543030

00:30

13-Фев-20

dpd RU

Еще никто не оставлял запись к записи скачать торрент Полицейский с Рублёвки. Новогодний беспредел 2 . Будь первым!

!Обратная связь