Скачать через торрент Сквозь чёрное стекло Фильм бесплатно в хорошем качестве torrent

Скачивайте на UnionPeer.org фильмы через торрент без регистрации. Новинки кино в хорошем качестве через торрент. На UnionPeer.org можно скачать через торрент фильмы 2014 и 2015 годов. Самые новые фильмы.

Скачать торрент Сквозь чёрное стекло бесплатно через .torrent фильм мультфильм сериал

Статистика раздачи
Размер:  2.37 GB   |    Зарегистрирован:  5 месяцев 26 дней   |    .torrent скачан:  25 раз   |   
Раздают:  1  
 

Скачать Сквозь чёрное стекло (2019) WEB-DLRip-AVC от New-Team | iTunes через torrent

 
Sprinthost
загрузка...
 
Автор Сообщение

Galfimbul ghost

avatar Galfimbul ghost


Сквозь чёрное стекло

Год выхода: 2019
Жанр: Драма
Режиссер: Константин Лопушанский
В ролях: Максим Суханов, Василиса Денисова, Надежда Маркина, Ольга Онищенко, Андрей Полищук, Анна Екатерининская, Елена Зимина, Анна Дулова, Александра Мамкаева, Алексей Манцыгин

О фильме: Настя живет в девичьем приюте для слабовидящих при монастыре и собирается посвятить себя Богу. Однако в дело вмешивается случай, чью природу, божественную или дьявольскую, она постичь не в силах. Незнакомый богач Михаил Островой предлагает Насте оплатить дорогостоящую операцию в Германии, которая вернет ей зрение, после чего девушка будет должна выйти замуж за щедрого спонсора.
Что будет дальше, догадаться нетрудно. Жизнь впотьмах в российской нищей глубинке сменяется сказочной заграницей – такой яркой и светлой, что несложно ощутить подвох. Темнота не всегда означает сатанинское и злое, ведь, как известно, носителем света является Люцифер. Нетрудно увидеть его в расточительном и монструозном лысом амбале, который сравнивает себя с царем и больше всего ценит свою власть над миром.
General
Unique ID : 201729932961131188960065588272265183622 (0x97C3C5986A0DB4729AE4514A254C4186)
Complete name : D:2020 рипыФабрика грезSkvoz.chernoe.steklo.2019.x264.WEB-DLRip(AVC)-Lumina-New-team.mkv
Format : Matroska
Format version : Version 4 / Version 2
File size : 2.37 GiB
Duration : 2 h 19 min
Overall bit rate : 2 437 kb/s
Movie name : Сквозь чёрное стекло (2019)
Encoded date : UTC 2020-02-13 09:51:03
Writing application : mkvmerge v6.1.0 ('Old Devil') built on Mar 4 2013 09:10:42
Writing library : libebml v1.3.0 + libmatroska v1.4.0
Cover : Yes
Attachments : cover2.png

Video
ID : 1
Format : AVC
Format/Info : Advanced Video Codec
Format profile : High@L4.1
Format settings : CABAC / 10 Ref Frames
Format settings, CABAC : Yes
Format settings, ReFrames : 10 frames
Codec ID : V_MPEG4/ISO/AVC
Duration : 2 h 19 min
Bit rate : 2 052 kb/s
Width : 1 024 pixels
Height : 576 pixels
Display aspect ratio : 16:9
Frame rate mode : Constant
Frame rate : 25.000 FPS
Color space : YUV
Chroma subsampling : 4:2:0
Bit depth : 8 bits
Scan type : Progressive
Bits/(Pixel*Frame) : 0.139
Stream size : 1.95 GiB (82%)
Title : Лумина - New-team
Writing library : x264 core 130 r2273 b3065e6
Encoding settings : cabac=1 / ref=10 / deblock=1:3:3 / analyse=0x3:0x113 / me=umh / subme=11 / psy=1 / psy_rd=1.00:0.15 / mixed_ref=1 / me_range=48 / chroma_me=1 / trellis=2 / 8x8dct=1 / cqm=0 / deadzone=21,11 / fast_pskip=0 / chroma_qp_offset=-3 / threads=6 / lookahead_threads=1 / sliced_threads=0 / nr=0 / decimate=0 / interlaced=0 / bluray_compat=0 / constrained_intra=0 / bframes=11 / b_pyramid=2 / b_adapt=2 / b_bias=0 / direct=3 / weightb=1 / open_gop=1 / weightp=2 / keyint=240 / keyint_min=23 / scenecut=40 / intra_refresh=0 / rc=2pass / mbtree=0 / bitrate=2052 / ratetol=1.0 / qcomp=0.60 / qpmin=0 / qpmax=69 / qpstep=4 / cplxblur=20.0 / qblur=0.5 / ip_ratio=1.40 / pb_ratio=1.30 / aq=1:1.00
Language : Russian
Default : Yes
Forced : No

Audio
ID : 2
Format : AC-3
Format/Info : Audio Coding 3
Codec ID : A_AC3
Duration : 2 h 19 min
Bit rate mode : Constant
Bit rate : 384 kb/s
Channel(s) : 6 channels
Channel positions : Front: L C R, Side: L R, LFE
Sampling rate : 48.0 kHz
Frame rate : 31.250 FPS (1536 SPF)
Bit depth : 16 bits
Compression mode : Lossy
Stream size : 382 MiB (16%)
Title : Русский (iTunes)
Language : Russian
Service kind : Complete Main
Default : Yes
Forced : No

Menu
00:00:00.000 : en:Глава 1
00:05:12.520 : en:Глава 2
00:12:41.000 : en:Глава 3
00:21:39.800 : en:Глава 4
00:30:31.920 : en:Глава 5
00:40:11.840 : en:Глава 6
00:49:05.880 : en:Глава 7
00:58:14.560 : en:Глава 8
01:07:06.080 : en:Глава 9
01:16:36.360 : en:Глава 10
01:24:24.840 : en:Глава 11
01:31:09.280 : en:Глава 12
01:37:52.040 : en:Глава 13
01:45:10.280 : en:Глава 14
01:54:50.280 : en:Глава 15
02:05:11.600 : en:Глава 16


Страна: Россия
Студия: Proline Film
Продолжительность: 02:19:08
Язык: Русский

Файл
Кодек: MPEG-4 AVC
Качество: WEB-DLRip-AVC
Видео: 1024x576, 16/9, 25.000 fps, 2052 Кбит/с
Звук: AC3, 48.0 KHz, 6 ch, 384 Кбит/с

Семпл Источник http://listRutor.org

Внимание! AdBlock блокирует показ скриншотов, все вопросы к разработчикам )))
Трекер:  [ 13-Фев-2020 13:50 ]

  

Скачать .torrent

Размер .torrent файла 12 KB


Размер: 2.37 GB
Хэш (hash) релиза: f408882a75ae5b947ba414e6a72b7ab4ec4d64b8
Подписка на обновления:

Торренты, похожие на Сквозь чёрное стекло скачать торрент

Форум Название Автор Размер S L Добавлен
Российские фильмы 2016-2020 (Новинки русского кино) ·· Сквозь чёрное стекло (2019) WEB-DLRip от New-Team | iTunes Galfimbul ghost 21419253761.99 GB 0 0 1581426026

16:00

11-Фев-20

Российские фильмы 2016-2020 (Новинки русского кино) ·· Сквозь чёрное стекло (2019) WEB-DLRip от GeneralFilm | iTunes Galfimbul ghost 15659622401.46 GB 0 0 1581377439

02:30

11-Фев-20

Российские фильмы 2016-2020 (Новинки русского кино) ·· Сквозь чёрное стекло (2019) WEB-DL 1080p | iTunes Galfimbul ghost 58873875595.48 GB 0 0 1581356433

20:40

10-Фев-20

dpd RU

Еще никто не оставлял запись к записи скачать торрент Сквозь чёрное стекло . Будь первым!

!Обратная связь