Скачать через торрент Полицейский с Рублёвки. Новогодний беспредел 2 Фильм бесплатно в хорошем качестве torrent

Скачивайте на UnionPeer.org фильмы через торрент без регистрации. Новинки кино в хорошем качестве через торрент. На UnionPeer.org можно скачать через торрент фильмы 2014 и 2015 годов. Самые новые фильмы.

Скачать торрент Полицейский с Рублёвки. Новогодний беспредел 2 бесплатно через .torrent фильм мультфильм сериал

Статистика раздачи
Размер:  1.09 GB   |    Зарегистрирован:  9 дней   |    .torrent скачан:  91 раз   |   
Раздают:  2  
 

Скачать Полицейский с Рублёвки. Новогодний беспредел 2 (2019) WEB-DLRip от GeneralFilm через torrent

 
загрузка...
 
Автор Сообщение

Galfimbul ghost

avatar Galfimbul ghost


Полицейский с Рублёвки. Новогодний беспредел 2



[b]Год выпуска
: 2019
Жанр: Комедия
Выпущено: Россия, Legio Felix
Режиссер: Илья Куликов
В ролях: Сергей Бурунов, Рина Гришина, Сергей Штатнов, Светлана Суханова, Роман Попов, Александра Бортич, Софья Каштанова, Ирина Вилкова, Ростислав Гулбис, Александр Дерепко, Юрий Брешин, Сергей Селин

О фильме: Близится Новый год, и сотрудники отдела полиции Барвихи планируют праздновать его за городом в компании старых друзей и коллег. Но непредвиденные обстоятельства в лице преступников, ограбивших крупное ювелирное предприятие, ставят праздник под угрозу. Смогут ли рублёвские полицейские вернуть украденные драгоценные камни стоимостью в миллионы долларов и спасти Новый год до того, как часы пробьют полночь?

Качество: WEB-DLRip
Видео: XviD build 73, 720x400 (16:9), 25.000 fps, 1722 Kbps (0.315 bit/pixel)
Аудио: 48.0 kHz, AC3, 2/0 ch, 192 kbps
Продолжительность: 01:20:55
Перевод: Не требуется [Русский]
Cубтитры: нет
General
Complete name : D:RazdachiNovogodnij.Bespredel.2.2019.WEB-DLRip.GeneralFilm.avi
Format : AVI
Format/Info : Audio Video Interleave
File size : 1.09 GiB
Duration : 1 h 20 min
Overall bit rate : 1 924 kb/s
Writing application : VirtualDubMod 1.5.10.3 | www.virtualdub-fr.org || (build 2550/release)
Writing library : VirtualDubMod build 2550/release

Video
ID : 0
Format : MPEG-4 Visual
Format profile : Advanced Simple@L5
Format settings : BVOP1 / Custom Matrix
Format settings, BVOP : 1
Format settings, QPel : No
Format settings, GMC : No warppoints
Format settings, Matrix : Custom
Codec ID : XVID
Codec ID/Hint : XviD
Duration : 1 h 20 min
Bit rate : 1 722 kb/s
Width : 720 pixels
Height : 304 pixels
Display aspect ratio : 2.35:1
Frame rate : 25.000 FPS
Color space : YUV
Chroma subsampling : 4:2:0
Bit depth : 8 bits
Scan type : Progressive
Compression mode : Lossy
Bits/(Pixel*Frame) : 0.315
Stream size : 997 MiB (90%)
Writing library : XviD 73

Audio
ID : 1
Format : AC-3
Format/Info : Audio Coding 3
Commercial name : Dolby Digital
Codec ID : 2000
Duration : 1 h 20 min
Bit rate mode : Constant
Bit rate : 192 kb/s
Channel(s) : 2 channels
Channel layout : L R
Sampling rate : 48.0 kHz
Frame rate : 31.250 FPS (1536 SPF)
Compression mode : Lossy
Stream size : 111 MiB (10%)
Alignment : Split across interleaves
Interleave, duration : 40 ms (1.00 video frame)
Interleave, preload duratio : 500 ms
Service kind : Complete Main
Источник http://listRutor.org

Трекер:  [ 13-Фев-2020 18:30 ]

  

Скачать .torrent

Размер .torrent файла 11 KB


Размер: 1.09 GB
Хэш (hash) релиза: a626e21639dcbdcb3436a7000b0a98a05e619dcd
Подписка на обновления:

Торренты, похожие на Полицейский с Рублёвки. Новогодний беспредел 2 скачать торрент

Форум Название Автор Размер S L Добавлен
Российские фильмы 2016-2020 (Новинки русского кино) ·· Полицейский с Рублёвки. Новогодний беспредел 2 (2019) WEB-DLRip от Portablius Galfimbul ghost 780097536744 MB 2 0 1581766819

14:40

15-Фев-20

Российские фильмы 2016-2020 (Новинки русского кино) ·· Полицейский с Рублёвки. Новогодний беспредел 2 (2019) WEB-DLRip от Files-x Galfimbul ghost 14740439041.37 GB 4 0 1581588637

13:10

13-Фев-20

Российские фильмы 2016-2020 (Новинки русского кино) ·· Полицейский с Рублёвки. Новогодний беспредел 2 (2019) WEB-DLRip от Generalfilm | КПК Galfimbul ghost 322457629308 MB 0 0 1581587452

12:50

13-Фев-20

Российские фильмы 2016-2020 (Новинки русского кино) ·· Полицейский с Рублёвки. Новогодний беспредел 2 (2019) WEB-DLRip-AVC от Files-х Galfimbul ghost 14682863001.37 GB 2 0 1581585038

12:10

13-Фев-20

Российские фильмы 2016-2020 (Новинки русского кино) ·· Полицейский с Рублёвки. Новогодний беспредел-2 (2019) WEB-DLRip-AVC от ExKinoRay Galfimbul ghost 13306039891.24 GB 0 0 1581546645

01:30

13-Фев-20

Российские фильмы 2016-2020 (Новинки русского кино) ·· Полицейский с Рублёвки. Новогодний беспредел 2 (2019) WEB-DLRip Galfimbul ghost 14710251521.37 GB 0 0 1581544238

00:50

13-Фев-20

Российские фильмы 2016-2020 (Новинки русского кино) ·· Полицейский с Рублёвки. Новогодний беспредел-2 (2019) WEB-DL 1080p от ExKinoRay Galfimbul ghost 19295849301.8 GB 2 0 1581543036

00:30

13-Фев-20

Российские фильмы 2016-2020 (Новинки русского кино) ·· Полицейский с Рублёвки. Новогодний беспредел 2 (2019) WEB-DL 1080p Galfimbul ghost 28398940882.64 GB 3 1 1581543030

00:30

13-Фев-20

Еще никто не оставлял запись к записи скачать торрент Полицейский с Рублёвки. Новогодний беспредел 2 . Будь первым!

!Обратная связь