Скачать через торрент Холодное сердце 2 Frozen II Фильм бесплатно в хорошем качестве torrent

Скачивайте на UnionPeer.org фильмы через торрент без регистрации. Новинки кино в хорошем качестве через торрент. На UnionPeer.org можно скачать через торрент фильмы 2014 и 2015 годов. Самые новые фильмы.

Скачать торрент Холодное сердце 2 Frozen II бесплатно через .torrent фильм мультфильм сериал

Статистика раздачи
Размер:  4.94 GB   |    Зарегистрирован:  5 месяцев 25 дней   |    .torrent скачан:  39 раз   |   
Раздают:  1  
 

Скачать Холодное сердце 2 / Frozen II (2019) BDRip-HEVC 2160p | HDR | D через torrent

 
Sprinthost
загрузка...
 
Автор Сообщение

Galfimbul ghost

avatar Galfimbul ghost


Холодное сердце 2 /Frozen II

Год выхода: 2019
Жанр: мультфильм, мюзикл, фэнтези, комедия, приключения, семейный
Режиссер: Крис Бак, Дженнифер Ли
В ролях: Идина Мензел, Кристен Белл, Джонатан Грофф, Джош Гэд, Стерлинг К. Браун, Эван Рэйчел Вуд, Альфред Молина, Марта Плимптон, Джейсон Риттер, Рэйчел Мэттьюз

О фильме:
Анна, Эльза, Кристоф, его верный олень Свен и никогда не унывающий снеговик Олаф должны будут покинуть уютное королевство Эренделл и отправиться ещё дальше на север, в путешествие, которое приведет их к истокам древних легенд и поможет раскрыть тайны, касающиеся прошлого их родной страны.



Страна: США
Студия: Walt Disney Animation Studios, Walt Disney Pictures
Продолжительность: 01:43:13
Перевод: Дубляж

Файл
Кодек: H.265
Качество: BDRip-HEVC 2160p
Видео: HEVC HDR, 5.9 Mбит/с, 3840x1608, 23.976 кадр/с
Звук:
Русский: 48 kHz, AC3 Dolby Digital, 2/0 (L,R) ch, 192 kbps / Дубляж, Онлайн кинотеатр
Английский: 48 kHz, AC3 Dolby Digital, 3/2 (L,C,R,l,r) + LFE ch, 640 kbps
Субтитры: Русские (Full), Английские (SDH)
General
Unique ID : 79422930578066306944080348824806923466 (0x3BC04CCE93F17AED50BDB601C6BC9CCA)
Complete name : C:KINOFrozen_II.2019.BDRip.2160p.HDR.by Silverok.mkv
Format : Matroska
Format version : Version 4
File size : 4.94 GiB
Duration : 1 h 43 min
Overall bit rate : 6 849 kb/s
Movie name : Frozen_II.2019.BDRip.2160p.HDR.by Silverok
Encoded date : UTC 2020-02-13 18:17:13
Writing application : mkvmerge v43.0.0 ('The Quartermaster') 64-bit
Writing library : libebml v1.3.10 + libmatroska v1.5.2
Cover : Yes
Attachments : cover.png

Video
ID : 1
Format : HEVC
Format/Info : High Efficiency Video Coding
Format profile : Main 10@L5.1@High
HDR format : SMPTE ST 2086, HDR10 compatible
Codec ID : V_MPEGH/ISO/HEVC
Duration : 1 h 43 min
Bit rate : 5 998 kb/s
Width : 3 840 pixels
Height : 1 608 pixels
Display aspect ratio : 2.40:1
Frame rate mode : Constant
Frame rate : 23.976 (24000/1001) FPS
Color space : YUV
Chroma subsampling : 4:2:0 (Type 2)
Bit depth : 10 bits
Bits/(Pixel*Frame) : 0.041
Stream size : 4.32 GiB (88%)
Title : BDRip.2160p.HDR.by Silverok
Writing library : x265 3.2+23-52135ffd9bcd:[Windows][GCC 9.2.1][64 bit] 10bit
Encoding settings : cpuid=1176575 / frame-threads=5 / numa-pools=36 / wpp / no-pmode / no-pme / no-psnr / no-ssim / log-level=2 / input-csp=1 / input-res=3840x1608 / interlace=0 / total-frames=148499 / level-idc=51 / high-tier=1 / uhd-bd=0 / ref=4 / no-allow-non-conformance / repeat-headers / annexb / aud / hrd / info / hash=0 / no-temporal-layers / no-open-gop / min-keyint=1 / keyint=24 / gop-lookahead=0 / bframes=4 / b-adapt=2 / b-pyramid / bframe-bias=0 / rc-lookahead=25 / lookahead-slices=4 / scenecut=40 / hist-scenecut=0 / radl=0 / no-splice / no-intra-refresh / ctu=64 / min-cu-size=8 / rect / no-amp / max-tu-size=32 / tu-inter-depth=1 / tu-intra-depth=1 / limit-tu=0 / rdoq-level=2 / dynamic-rd=0.00 / no-ssim-rd / signhide / no-tskip / nr-intra=0 / nr-inter=0 / no-constrained-intra / no-strong-intra-smoothing / max-merge=3 / limit-refs=3 / limit-modes / me=3 / subme=3 / merange=57 / temporal-mvp / no-frame-dup / no-hme / weightp / no-weightb / no-analyze-src-pics / deblock=-3:-3 / no-sao / no-sao-non-deblock / rd=4 / selective-sao=0 / no-early-skip / rskip / no-fast-intra / no-tskip-fast / no-cu-lossless / no-b-intra / no-splitrd-skip / rdpenalty=0 / psy-rd=2.00 / psy-rdoq=1.00 / no-rd-refine / no-lossless / cbqpoffs=0 / crqpoffs=0 / rc=crf / crf=17.0 / qcomp=0.60 / qpstep=4 / stats-write=0 / stats-read=0 / vbv-maxrate=160000 / vbv-bufsize=160000 / vbv-init=0.9 / crf-max=0.0 / crf-min=0.0 / ipratio=1.40 / pbratio=1.30 / aq-mode=1 / aq-strength=1.00 / cutree / zone-count=0 / no-strict-cbr / qg-size=32 / no-rc-grain / qpmax=69 / qpmin=0 / no-const-vbv / sar=1 / overscan=0 / videoformat=5 / range=0 / colorprim=9 / transfer=16 / colormatrix=9 / chromaloc=1 / chromaloc-top=2 / chromaloc-bottom=2 / display-window=0 / master-display=G(13250,34500)B(7500,3000)R(34000,16000)WP(15635,16450)L(10000000,1) / cll=0,0 / min-luma=0 / max-luma=1023 / log2-max-poc-lsb=8 / vui-timing-info / vui-hrd-info / slices=1 / no-opt-qp-pps / no-opt-ref-list-length-pps / no-multi-pass-opt-rps / scenecut-bias=0.05 / hist-threshold=0.01 / no-opt-cu-delta-qp / no-aq-motion / hdr / hdr-opt / no-dhdr10-opt / no-idr-recovery-sei / analysis-reuse-level=5 / scale-factor=0 / refine-intra=0 / refine-inter=0 / refine-mv=1 / refine-ctu-distortion=0 / no-limit-sao / ctu-info=0 / no-lowpass-dct / refine-analysis-type=0 / copy-pic=1 / max-ausize-factor=1.0 / no-dynamic-refine / no-single-sei / no-hevc-aq / no-svt / no-field / qp-adaptation-range=1.00 / no-scenecut-aware-qp
Default : Yes
Forced : No
Color range : Limited
Color primaries : BT.2020
Transfer characteristics : PQ
Matrix coefficients : BT.2020 non-constant
Mastering display color primaries : Display P3
Mastering display luminance : min: 0.0001 cd/m2, max: 1000 cd/m2

Audio #1
ID : 2
Format : AC-3
Format/Info : Audio Coding 3
Commercial name : Dolby Digital
Codec ID : A_AC3
Duration : 1 h 43 min
Bit rate mode : Constant
Bit rate : 192 kb/s
Channel(s) : 2 channels
Channel layout : L R
Sampling rate : 48.0 kHz
Frame rate : 31.250 FPS (1536 SPF)
Compression mode : Lossy
Stream size : 142 MiB (3%)
Title : Дубляж, Онлайн кинотеатр
Language : Russian
Service kind : Complete Main
Default : Yes
Forced : No

Audio #2
ID : 3
Format : AC-3
Format/Info : Audio Coding 3
Commercial name : Dolby Digital
Codec ID : A_AC3
Duration : 1 h 43 min
Bit rate mode : Constant
Bit rate : 640 kb/s
Channel(s) : 6 channels
Channel layout : L R C LFE Ls Rs
Sampling rate : 48.0 kHz
Frame rate : 31.250 FPS (1536 SPF)
Compression mode : Lossy
Stream size : 473 MiB (9%)
Language : English
Service kind : Complete Main
Default : No
Forced : No

Text #1
ID : 4
Format : UTF-8
Codec ID : S_TEXT/UTF8
Codec ID/Info : UTF-8 Plain Text
Duration : 1 h 29 min
Bit rate : 85 b/s
Count of elements : 1231
Stream size : 56.4 KiB (0%)
Title : Full
Language : Russian
Default : No
Forced : No

Text #2
ID : 5
Format : PGS
Muxing mode : zlib
Codec ID : S_HDMV/PGS
Codec ID/Info : Picture based subtitle format used on BDs/HD-DVDs
Duration : 1 h 43 min
Bit rate : 44.1 kb/s
Count of elements : 3878
Stream size : 32.5 MiB (1%)
Title : SDH
Language : English
Default : Yes
Forced : No
Источник http://listRutor.org

Внимание! AdBlock блокирует показ скриншотов, все вопросы к разработчикам )))
Трекер:  [ 13-Фев-2020 22:00 ]

  

Скачать .torrent

Размер .torrent файла 99 KB


Размер: 4.94 GB
Хэш (hash) релиза: 9e0020b3f8c82d88ba878c16e3169def890836e2
Подписка на обновления:

Торренты, похожие на Холодное сердце 2 Frozen II скачать торрент

Форум Название Автор Размер S L Добавлен
Мультфильмы 2016-2020 (Новинки мультфильмов) ·%· Холодное сердце 2 / Frozen II (2019) BDRip 1080p от qqss44 & MegaPeer | iTunes Galfimbul ghost 59875640975.58 GB 0 0 1588606272

18:31

4-Май-20

Мультфильмы 2016-2020 (Новинки мультфильмов) ·· Холодное сердце 2 / Frozen II (2019) BDRip 1080p от Ash61 | 3D-Video | halfOU | iTunes Galfimbul ghost 74849450846.97 GB 0 0 1584042054

22:40

12-Мар-20

Мультфильмы 2016-2020 (Новинки мультфильмов) ·· Холодное сердце 2 / Frozen II (2019) DVD9 | Custom | iTunes Galfimbul ghost 62620672005.83 GB 0 0 1584020547

16:42

12-Мар-20

Мультфильмы 2016-2020 (Новинки мультфильмов) ·· Холодное сердце 2 / Frozen II (2019) BDRemux 1080p от селезень | 3D-Video | iTunes Galfimbul ghost 3793951129635.33 GB 0 0 1583964035

01:00

12-Мар-20

Мультфильмы 2016-2020 (Новинки мультфильмов) ·· Холодное сердце 2 / Frozen II (2019) BDRip 720p от Scarabey | iTunes Galfimbul ghost 49442160854.6 GB 0 0 1582565438

20:30

24-Фев-20

Мультфильмы 2016-2020 (Новинки мультфильмов) ·· Холодное сердце 2 / Frozen II (2019) BDRip-HEVC 1080p от HEVC-CLUB | iTunes Galfimbul ghost 50412603904.7 GB 0 0 1582221012

20:50

20-Фев-20

Мультфильмы 2016-2020 (Новинки мультфильмов) ·· Холодное сердце 2 / Frozen II (2019) BDRip-AVC | iTunes Galfimbul ghost 16842653151.57 GB 0 0 1581970222

23:10

17-Фев-20

Мультфильмы 2016-2020 (Новинки мультфильмов) ·· Холодное сердце 2 / Frozen II (2019) HDRip от Scarabey | iTunes Galfimbul ghost 15020544001.4 GB 0 0 1581959430

20:10

17-Фев-20

Мультфильмы 2016-2020 (Новинки мультфильмов) ·· Холодное сердце 2 / Frozen II (2019) BDRemux 1080p от селезень | iTunes Galfimbul ghost 2134213082319.88 GB 2 0 1581869418

19:10

16-Фев-20

Мультфильмы 2016-2020 (Новинки мультфильмов) ·· Холодное сердце 2 / Frozen II (2019) HDRip-AVC от OlLanDGroup | iTunes Galfimbul ghost 782371089746 MB 2 0 1581679818

14:30

14-Фев-20

Мультфильмы 2016-2020 (Новинки мультфильмов) ·· Холодное сердце 2 / Frozen II (2019) UHD BDRemux 2160p от селезень | 4K | HDR | iTunes Galfimbul ghost 5435805838750.62 GB 0 0 1581667811

11:10

14-Фев-20

Мультфильмы 2016-2020 (Новинки мультфильмов) ·· Холодное сердце 2 / Frozen II (2019) BDRip 720p от селезень | iTunes Galfimbul ghost 41652071243.88 GB 0 0 1581624033

23:00

13-Фев-20

Мультфильмы 2016-2020 (Новинки мультфильмов) ·· Холодное сердце 2 / Frozen II (2019) HDRip от MegaPeer | iTunes Galfimbul ghost 15678300161.46 GB 0 0 1581624027

23:00

13-Фев-20

Мультфильмы 2016-2020 (Новинки мультфильмов) ·· Холодное сердце 2 / Frozen II (2019) BDRip 1080p от селезень | iTunes Galfimbul ghost 72081171416.71 GB 2 0 1581622826

22:40

13-Фев-20

Мультфильмы 2016-2020 (Новинки мультфильмов) ·· Холодное сердце 2 / Frozen II (2019) WEB-DLRip-AVC от grab777 | D Galfimbul ghost 23692874252.21 GB 0 0 1581499828

12:30

12-Фев-20

Мультфильмы 2016-2020 (Новинки мультфильмов) ·· Холодное сердце 2 / Frozen II (2019) WEB-DLRip | D Galfimbul ghost 15698004691.46 GB 0 0 1581399030

08:30

11-Фев-20

Мультфильмы 2016-2020 (Новинки мультфильмов) ·· Холодное сердце 2 / Frozen II (2019) WEB-DL 1080p | D Galfimbul ghost 39752208023.7 GB 0 0 1581366025

23:20

10-Фев-20

Мультфильмы 2016-2020 (Новинки мультфильмов) ·%· Холодное сердце 2 / Frozen II (2019) WEBRip от Dalemake | D Galfimbul ghost 15631708161.46 GB 0 0 1578316218

16:10

6-Янв-20

Мультфильмы 2016-2020 (Новинки мультфильмов) ·%· Холодное сердце 2 / Frozen II (2019) DVDScr | Sub Galfimbul ghost 17569450691.64 GB 0 0 1578138016

14:40

4-Янв-20

dpd RU

Еще никто не оставлял запись к записи скачать торрент Холодное сердце 2 Frozen II . Будь первым!

!Обратная связь