Скачать через торрент Реальная любовь в Нью-Йорке The Kindness of Strangers Фильм бесплатно в хорошем качестве torrent

Скачивайте на UnionPeer.org фильмы через торрент без регистрации. Новинки кино в хорошем качестве через торрент. На UnionPeer.org можно скачать через торрент фильмы 2014 и 2015 годов. Самые новые фильмы.

Скачать торрент Реальная любовь в Нью-Йорке The Kindness of Strangers бесплатно через .torrent фильм мультфильм сериал

Статистика раздачи
Размер:  3.2 GB   |    Зарегистрирован:  7 месяцев   |    .torrent скачан:  27 раз   |   
Раздают:  1  
 

Скачать Реальная любовь в Нью-Йорке / The Kindness of Strangers (2019) WEB-DL 1080p от селезень | iTunes через torrent

 
Sprinthost
загрузка...
 
Автор Сообщение

Galfimbul ghost

avatar Galfimbul ghost


Реальная любовь в Нью-Йорке /The Kindness of Strangers

Год выхода: 2019
Жанр: Драма
Режиссер: Лоне Шерфиг
В ролях: Билл Найи, Андреа Райзборо, Джей Барушель, Калеб Лэндри Джонс, Зои Казан, Давид Денсик, Тахар Рахим, Дэниэл Кэш, Лиза Кодрингтон, Скотт Эджкомб



О фильме: В предновогоднем Нью-Йорке к празднику готовятся миллионы людей. У каждого своя мечта и вера в чудо. Некоторым судьбам суждено пересечься накануне Нового года ради истории любви - взаимной или безответной, радостной или мучительной, но всегда яркой и удивительной.

Страна: Дания, Канада, Швеция, Франция, Германия, Великобритания, США
Студия: arte, Copenhagen Film Fund, Creative Alliance
Продолжительность: 01:54:44
Перевод: Профессиональный многоголосый | iTunes

Качество: WEB-DL 1080p
Видео: MPEG-4 AVC, 1920x1080, 3217 Kbit/s, 23.976 fps
Аудио #01: 48 kHz, AC3, 5.1, 384 Kbps | iTunes | RUS |
Аудио #02: 48 kHz, AC3, 5.1, 384 Kbps | Оригинал | ENG |
Субтитры: Нет
General
Unique ID : 328703921174226239099198607663575321357 (0xF74A128CEA469596D2C24BB6CA1FCB0D)
Complete name : E:Video111The.Kindness.of.Strangers.WEB-DL.1080p.seleZen.mkv
Format : Matroska
Format version : Version 4
File size : 3.20 GiB
Duration : 1 h 54 min
Overall bit rate : 3 987 kb/s
Movie name : The Kindness of Strangers 2019 from селезень
Encoded date : UTC 2020-02-14 09:39:43
Writing application : mkvmerge v40.0.0 (''Old Town Road + Pony'') 64-bit
Writing library : libebml v1.3.9 + libmatroska v1.5.2

Video
ID : 1
Format : AVC
Format/Info : Advanced Video Codec
Format profile : High@L4
Format settings : CABAC / 2 Ref Frames
Format settings, CABAC : Yes
Format settings, Reference : 2 frames
Codec ID : V_MPEG4/ISO/AVC
Duration : 1 h 54 min
Bit rate : 3 217 kb/s
Width : 1 920 pixels
Height : 1 080 pixels
Display aspect ratio : 16:9
Frame rate mode : Constant
Frame rate : 23.976 (24000/1001) FPS
Color space : YUV
Chroma subsampling : 4:2:0
Bit depth : 8 bits
Scan type : Progressive
Bits/(Pixel*Frame) : 0.065
Stream size : 2.58 GiB (81%)
Writing library : x264 core 155 r2901 7d0ff22
Language : English
Default : Yes
Forced : No
Color range : Limited
Color primaries : BT.709
Transfer characteristics : BT.709
Matrix coefficients : BT.709

Audio #1
ID : 2
Format : AC-3
Format/Info : Audio Coding 3
Commercial name : Dolby Digital
Codec ID : A_AC3
Duration : 1 h 54 min
Bit rate mode : Constant
Bit rate : 384 kb/s
Channel(s) : 6 channels
Channel layout : L R C LFE Ls Rs
Sampling rate : 48.0 kHz
Frame rate : 31.250 FPS (1536 SPF)
Compression mode : Lossy
Stream size : 315 MiB (10%)
Title : iTunes
Language : Russian
Service kind : Complete Main
Default : Yes
Forced : Yes

Audio #2
ID : 3
Format : AC-3
Format/Info : Audio Coding 3
Commercial name : Dolby Digital
Codec ID : A_AC3
Duration : 1 h 54 min
Bit rate mode : Constant
Bit rate : 384 kb/s
Channel(s) : 6 channels
Channel layout : L R C LFE Ls Rs
Sampling rate : 48.0 kHz
Frame rate : 31.250 FPS (1536 SPF)
Compression mode : Lossy
Stream size : 315 MiB (10%)
Title : Original
Language : English
Service kind : Complete Main
Default : No
Forced : No

Источник http://listRutor.org

Внимание! AdBlock блокирует показ скриншотов, все вопросы к разработчикам )))
Трекер:  [ 14-Фев-2020 12:50 ]

  

Скачать .torrent

Размер .torrent файла 4 KB


Размер: 3.2 GB
Хэш (hash) релиза: deedf3375789bfb47562e300e7a86a4ebe3b23f0
Подписка на обновления:

Торренты, похожие на Реальная любовь в Нью-Йорке The Kindness of Strangers скачать торрент

Форум Название Автор Размер S L Добавлен
Зарубежные фильмы 2016-2019 (Новинки зарубежного кино) ·· Реальная любовь в Нью-Йорке / The Kindness of Strangers (2019) WEB-DLRip от MegaPeer | iTunes Galfimbul ghost 15684730881.46 GB 0 0 1581677411

13:50

14-Фев-20

dpd RU

Еще никто не оставлял запись к записи скачать торрент Реальная любовь в Нью-Йорке The Kindness of Strangers . Будь первым!

!Обратная связь