Скачать через торрент Ослепленный светом Blinded by the Light Фильм бесплатно в хорошем качестве torrent

Скачивайте на UnionPeer.org фильмы через торрент без регистрации. Новинки кино в хорошем качестве через торрент. На UnionPeer.org можно скачать через торрент фильмы 2014 и 2015 годов. Самые новые фильмы.

Скачать торрент Ослепленный светом Blinded by the Light бесплатно через .torrent фильм мультфильм сериал

Статистика раздачи
Размер:  745 MB   |    Зарегистрирован:  8 месяцев   |    .torrent скачан:  9 раз   |   
Раздают:  1  
 

Скачать Ослепленный светом / Blinded by the Light (2019) BDRip-AVC от OlLanDGroup | iTunes через torrent

 
Sprinthost
загрузка...
 
Автор Сообщение

Galfimbul ghost

avatar Galfimbul ghost


Информация о фильме
Ослепленный светом /Blinded by the Light

Год выпуска: 2019
Жанр: Драма, комедия, музыка, биография
Режиссер: Гуриндер Чадха
В ролях: Вивеик Калра, Кулвиндер Гир, Мира Ганатра, Аарон Фагура, Дин-Чарльз Чепмен, Никита Мехта, Нелл Уильямс, Тара Дивина, Роб Брайдон, Фрэнки Фокс

О фильме:
1987 год. Шестнадцатилетний школьник Джавед из семьи пакистанских эмигрантов живет в небольшом английском городе Лутоне. Его жизнь кроткого и замкнутого подростка переворачивается благодаря влиянию музыки Брюса Спрингстина. Вдохновившись ей, Джавед учится жить полноценной жизнью, понимать свою семью и обрести свой собственный голос. Он решается сделать то, на что раньше считал себя неспособным...



Страна: Великобритания, США
Студия: Bend It Films, Ingenious Media, Levantine Films
Продолжительность: 01:57:46
Перевод: Дублированный | iTunes

Файл
Формат: MKV
Качество: BDRip-AVC
Источник: |Blinded.by.the.Light.2019.BDREMUX.1080p.seleZen|
Видео: 720x302 (2.40:1), 23.976 fps, h.264 ~820 kbps avg, 0.157 bit/pixel
Звук: 48 kHz, HE-AAC, 2 ch, ~64 kbps avg
Субтитры: Русские (Forced, full), английские
General
Unique ID : 157575582229456729712104444631593290981 (0x768BF4070319FFFDE11FB48D20908CE5)
Complete name : C:UsersSkandarVideosBlinded.By.The.Light.2019.BDRip(AVC).746Mb.OlLanDGroup.mkv
Format : Matroska
Format version : Version 4
File size : 745 MiB
Duration : 1 h 57 min
Overall bit rate : 885 kb/s
Movie name : Blinded by the Light (2019) #Skandar# OlLanDGroup & Hitrustor
Encoded date : UTC 2020-02-15 16:02:35
Writing application : mkvmerge v31.0.0 ('Dolores In A Shoestand') 64-bit
Writing library : libebml v1.3.6 + libmatroska v1.4.9
Cover : Yes
Attachments : cover.png

Video
ID : 1
Format : AVC
Format/Info : Advanced Video Codec
Format profile : High@L4.1
Format settings : CABAC / 10 Ref Frames
Format settings, CABAC : Yes
Format settings, ReFrames : 10 frames
Codec ID : V_MPEG4/ISO/AVC
Duration : 1 h 57 min
Bit rate : 820 kb/s
Width : 720 pixels
Height : 302 pixels
Display aspect ratio : 2.40:1
Frame rate mode : Constant
Frame rate : 23.976 (24000/1001) FPS
Color space : YUV
Chroma subsampling : 4:2:0
Bit depth : 8 bits
Scan type : Progressive
Bits/(Pixel*Frame) : 0.157
Stream size : 689 MiB (92%)
Title : Blinded by the Light (2019) #Skandar# OlLanDGroup & Hitrustor
Writing library : x264 core 146 r2538 121396c
Encoding settings : cabac=1 / ref=10 / deblock=1:-3:-3 / analyse=0x3:0x133 / me=umh / subme=11 / psy=1 / psy_rd=0.97:0.05 / mixed_ref=1 / me_range=48 / chroma_me=1 / trellis=2 / 8x8dct=1 / cqm=0 / deadzone=21,11 / fast_pskip=0 / chroma_qp_offset=-3 / threads=6 / lookahead_threads=1 / sliced_threads=0 / nr=0 / decimate=0 / interlaced=0 / bluray_compat=0 / constrained_intra=0 / bframes=11 / b_pyramid=2 / b_adapt=2 / b_bias=0 / direct=3 / weightb=1 / open_gop=0 / weightp=2 / keyint=240 / keyint_min=23 / scenecut=40 / intra_refresh=0 / rc_lookahead=40 / rc=2pass / mbtree=0 / bitrate=820 / ratetol=1.0 / qcomp=0.60 / qpmin=0 / qpmax=69 / qpstep=4 / cplxblur=20.0 / qblur=0.5 / vbv_maxrate=50000 / vbv_bufsize=62500 / nal_hrd=none / filler=0 / ip_ratio=1.40 / pb_ratio=1.30 / aq=1:1.00
Language : English
Default : Yes
Forced : No

Audio
ID : 2
Format : AAC LC SBR
Format/Info : Advanced Audio Codec Low Complexity with Spectral Band Replication
Commercial name : HE-AAC
Format settings : Explicit
Codec ID : A_AAC-2
Duration : 1 h 57 min
Bit rate : 64.0 kb/s
Channel(s) : 2 channels
Channel layout : L R
Sampling rate : 48.0 kHz
Frame rate : 23.438 FPS (2048 SPF)
Compression mode : Lossy
Delay relative to video : 31 ms
Stream size : 53.9 MiB (7%)
Title : Dub | iTunes
Language : Russian
Default : Yes
Forced : No

Text #1
ID : 3
Format : UTF-8
Codec ID : S_TEXT/UTF8
Codec ID/Info : UTF-8 Plain Text
Duration : 1 h 51 min
Bit rate : 1 b/s
Count of elements : 22
Stream size : 1.19 KiB (0%)
Title : Forced
Language : Russian
Default : Yes
Forced : Yes

Text #2
ID : 4
Format : UTF-8
Codec ID : S_TEXT/UTF8
Codec ID/Info : UTF-8 Plain Text
Duration : 1 h 51 min
Bit rate : 95 b/s
Count of elements : 1463
Stream size : 77.7 KiB (0%)
Title : Full
Language : Russian
Default : No
Forced : No

Text #3
ID : 5
Format : UTF-8
Codec ID : S_TEXT/UTF8
Codec ID/Info : UTF-8 Plain Text
Duration : 1 h 50 min
Bit rate : 61 b/s
Count of elements : 1636
Stream size : 49.5 KiB (0%)
Title : SDH
Language : English
Default : No
Forced : No

Menu
00:00:00.000 : en:Chapter 01
00:11:10.211 : en:Chapter 02
00:20:03.661 : en:Chapter 03
00:30:13.270 : en:Chapter 04
00:39:49.596 : en:Chapter 05
00:48:52.054 : en:Chapter 06
00:58:27.212 : en:Chapter 07
01:08:39.490 : en:Chapter 08
01:19:01.820 : en:Chapter 09
01:28:16.791 : en:Chapter 10
01:40:07.043 : en:Chapter 11
01:51:37.399 : en:Chapter 12
Источник http://listRutor.org

Внимание! AdBlock блокирует показ скриншотов, все вопросы к разработчикам )))
Трекер:  [ 15-Фев-2020 19:20 ]

  

Скачать .torrent

Размер .torrent файла 29 KB


Размер: 745 MB
Хэш (hash) релиза: 813c378ccb5785f97eb900110bc44ba264616c72
Подписка на обновления:

Торренты, похожие на Ослепленный светом Blinded by the Light скачать торрент

Форум Название Автор Размер S L Добавлен
Зарубежные фильмы 2016-2019 (Новинки зарубежного кино) ·· Ослепленный светом / Blinded by the Light (2019) HDRip от Generalfilm | КПК | iTunes Galfimbul ghost 602043581574 MB 0 0 1583149867

14:51

2-Мар-20

Зарубежные фильмы 2016-2019 (Новинки зарубежного кино) ·· Ослепленный светом / Blinded by the Light (2019) HDRip от Portablius | iTunes Galfimbul ghost 784363520748 MB 0 0 1582968026

12:20

29-Фев-20

Зарубежные фильмы 2016-2019 (Новинки зарубежного кино) ·· Ослеплённый светом / Blinded by the Light (2019) HDRip от Scarabey | iTunes Galfimbul ghost 14955192321.39 GB 0 0 1582218612

20:10

20-Фев-20

Зарубежные фильмы 2016-2019 (Новинки зарубежного кино) ·· Ослеплённый светом / Blinded by the Light (2019) BDRemux 1080p | iTunes Galfimbul ghost 2527798451623.54 GB 0 0 1581677407

13:50

14-Фев-20

Зарубежные фильмы 2016-2019 (Новинки зарубежного кино) ·· Ослепленный светом / Blinded by the Light (2019) BDRip от MegaPeer | iTunes Galfimbul ghost 15678177551.46 GB 0 0 1581675009

13:10

14-Фев-20

Зарубежные фильмы 2016-2019 (Новинки зарубежного кино) ·· Ослепленный светом / Blinded by the Light (2019) BDRemux 1080p от селезень | iTunes Galfimbul ghost 2314332111021.55 GB 0 0 1581671413

12:10

14-Фев-20

Зарубежные фильмы 2016-2019 (Новинки зарубежного кино) ·· Ослепленный светом / Blinded by the Light (2019) BDRip 1080p от селезень | iTunes Galfimbul ghost 1277407486111.9 GB 0 0 1581670213

11:50

14-Фев-20

Зарубежные фильмы 2016-2019 (Новинки зарубежного кино) ·· Ослепленный светом / Blinded by the Light (2019) BDRip 720p от селезень | iTunes Galfimbul ghost 70503422686.57 GB 0 0 1581670208

11:50

14-Фев-20

dpd RU

Еще никто не оставлял запись к записи скачать торрент Ослепленный светом Blinded by the Light . Будь первым!

!Обратная связь