Скачать через торрент Гранбельм Granbelm бесплатно Аниме Все серии на русском torrent

Статистика раздачи
Размер:  13.75 GB   |    Зарегистрирован:  5 месяцев 14 дней   |    .torrent скачан:  0 раз   |   
Раздают:  1  
 

Скачать Гранбельм / Granbelm [TV] [13 из 13] [Без хардсаба] [RUS(ext), JAP+Sub] [2019, приключения, фэнтези, меха, BDRip] [1080p] через torrent

 
Sprinthost
загрузка...
 
Автор Сообщение

Galfimbul ghost

avatar Galfimbul ghost



Гранбельм
Granbelm

Страна: Япония
Год выпуска: 2019
Жанр: приключения, фэнтези, меха
Тип: TV
Продолжительность: 13 эп, ~25 мин.
Режиссёр: Ватанабэ Масахару
Студия:
AniDB | World Art | MAL
Описание: Мир, в котором ранее существовала магия, полностью утратил этот дар.

Эта история начинается со встречи обычной японской школьницы Мангэцу Кохинаты и Эрнесты Фуками Сингэцу, которая только приехала обратно домой, в Японию, под полнолунную ночь.
© Crunchyroll
Перевод:

русские субтитры от Crunchyroll | .ass, внешние

тайминг под Blu-ray: DS29028888

Озвучка:

многоголосая от Crunchyroll | .mka, внешние

тайминг под Blu-ray: DS29028888



Качество: BDRip
Тип релиза: Без хардсаба
Формат видео: MKV
Наличие линковки: Нет
Наличие частей: Да
Релиз/Автор рипа: Vardë | Raws-Maji
Видео: AVC; 1920x1080; ~7 270 kb/s; 23,976 fps; 10 bits
Аудио: Japanese; AAC; ~276 kb/s; 48.0 kHz; 2 ch
Аудио: Japanese; AAC; ~234 kb/s; 48.0 kHz; 2 ch (commentary)
Аудио: Russian; AAC; ~128 kb/s; 44.1 kHz; 2 ch


GeneralUnique ID : 178805330677981424415395091566812293751 (0x8684A77045875889C1F89DD8DEB56A77)Complete name : [Raws-Maji] Granbelm [BDrip 1920x1080 x264 AAC]\[Raws-Maji] Granbelm - 01 [BDrip 1920x1080 x264 AAC].mkvFormat : MatroskaFormat version : Version 4File size : 1.33 GiBDuration : 24 min 30 sOverall bit rate : 7 783 kb/sEncoded date : UTC 2020-02-10 11:24:24Writing application : mkvmerge v43.0.0 (''The Quartermaster'') 64-bitWriting library : libebml v1.3.10 + libmatroska v1.5.2

VideoID : 1Format : AVCFormat/Info : Advanced Video CodecFormat profile : High 10@L5.1Format settings : CABAC / 16 Ref FramesFormat settings, CABAC : YesFormat settings, Reference : 16 framesCodec ID : V_MPEG4/ISO/AVCDuration : 24 min 30 sBit rate : 7 270 kb/sWidth : 1 920 pixelsHeight : 1 080 pixelsDisplay aspect ratio : 16:9Frame rate mode : ConstantFrame rate : 23.976 (24000/1001) FPSColor space : YUVChroma subsampling : 4:2:0Bit depth : 10 bitsScan type : ProgressiveBits/(Pixel*Frame) : 0.146Stream size : 1.24 GiB (93%)Writing library : x264 core 159 r2991+50 ce3db24 t_mod_New [(8 & 10)-bit@all X86_64]Encoding settings : cabac=1 / ref=16 / deblock=1:-1:-1 / analyse=0x3:0x133 / me=umh / subme=10 / psy=1 / fade_compensate=0.65 / psy_rd=0.80:0.00 / mixed_ref=1 / me_range=24 / chroma_me=1 / trellis=2 / 8x8dct=1 / cqm=0 / deadzone=21,11 / fast_pskip=0 / chroma_qp_offset=-2 / threads=27 / lookahead_threads=6 / sliced_threads=0 / nr=0 / decimate=0 / interlaced=0 / bluray_compat=0 / constrained_intra=0 / fgo=0 / bframes=16 / b_pyramid=2 / b_adapt=2 / b_bias=0 / direct=3 / weightb=1 / open_gop=0 / weightp=2 / keyint=360 / keyint_min=23 / scenecut=40 / intra_refresh=0 / rc_lookahead=60 / rc=crf / mbtree=1 / crf=14.5000 / qcomp=0.70 / qpmin=0:0:0 / qpmax=81:81:81 / qpstep=4 / ip_ratio=1.40 / aq=3:0.85 / aq-sensitivity=10.00 / aq-factor=1.00:1.00:1.00 / aq2=0 / aq3=0Language : JapaneseDefault : YesForced : NoColor range : LimitedColor primaries : BT.709Transfer characteristics : BT.709Matrix coefficients : BT.709

Audio #1ID : 2Format : AAC LCFormat/Info : Advanced Audio Codec Low ComplexityCodec ID : A_AAC-2Duration : 24 min 30 sBit rate : 276 kb/sChannel(s) : 2 channelsChannel layout : L RSampling rate : 48.0 kHzFrame rate : 46.875 FPS (1024 SPF)Compression mode : LossyStream size : 48.3 MiB (4%)Language : JapaneseDefault : YesForced : No

Audio #2ID : 3Format : AAC LCFormat/Info : Advanced Audio Codec Low ComplexityCodec ID : A_AAC-2Duration : 24 min 30 sBit rate : 234 kb/sChannel(s) : 2 channelsChannel layout : L RSampling rate : 48.0 kHzFrame rate : 46.875 FPS (1024 SPF)Compression mode : LossyStream size : 41.0 MiB (3%)Title : CommentaryLanguage : JapaneseDefault : NoForced : No

Menu00:00:00.000 : fr:Chapter 0100:02:14.009 : fr:Chapter 0200:03:44.015 : fr:Chapter 0300:11:30.023 : fr:Chapter 0400:22:27.012 : fr:Chapter 0500:23:57.019 : fr:Chapter 06
01. Единственные в мире маги
02. Чтобы я могла здесь остаться
03. Колокол звонит в полнолуние
04. Линь Фэнь Фэнь — мастер фэн-шуя
05. Маленькая мечта маленькой девочки
06. Магические кристаллы
07. Госпожа Озлобленность
08. Что значит стать магом
09. Ночная Росянка меняет цвет
10. Задумчивая кукла
11. Даже если не услышишь моих прощальных слов
12. Магиаконатус
13. Ради двух, единственных в своём роде


Внимание! AdBlock блокирует показ скриншотов, все вопросы к разработчикам )))
Трекер:  [ 18-Фев-2020 22:35 ]

  

Скачать .torrent

Размер .torrent файла 39 KB


Размер: 13.75 GB
Хэш (hash) релиза: 5d151c5e6c7539bc0091febe6ed48d64a6ba9922
Подписка на обновления:
dpd RU

Еще никто не оставлял запись к записи скачать торрент Гранбельм Granbelm . Будь первым!

!Обратная связь