Скачать через торрент Старшеклассники позволили себе жизнь в другом мире! Choujin Koukousei-tachi wa Isekai demo Yoyuu de Ikinuku you desu! бесплатно Аниме Все серии на русском torrent

Статистика раздачи
Размер:  16.5 GB   |    Зарегистрирован:  5 месяцев 23 дня   |    .torrent скачан:  7 раз   |   
Раздают:  1  
   
Sprinthost
загрузка...
 
Автор Сообщение

Galfimbul ghost

avatar Galfimbul ghost



Страна: Япония
Год выпуска: 2019
Жанр: Приключения, Фэнтези
Тип: TV
Продолжительность: 12 эп. по ~24 мин
Режиссер: Синсукэ Янаги
Студия:
Озвучка: Многоголосая / AniLibria | SAMPLE
—Nuts(муж)
—Lupin(муж)
—Malevich(муж)
—Cleo-chan(жен)
—Silv(жен)
—Narea(жен)
Перевод: Crunchyroll

Описание: Семеро учеников старшей школы попадают в авиакатастрофу и просыпаются в средневековом фэнтезийном мире, где существуют магия и зверолюди. Они строят атомную электростанцию в мире, где нет электричества, регулируют экономику большого города всего за одну рабочую поездку и, наконец, ради своего благодетеля, злоупотребляющего властью аристократов, объявляют войну злым дворянам. Кроме того, ни один из них не является обычным старшеклассником — все они очень способные люди, стоящие во главе политики, экономики, науки и медицины!
Это история о команде мечты, которая, обладая всеми земными знаниями, не отказывая себе ни в чём, совершила революцию в другом мире со своими сверхтехнологиями!
Информационные ссылки:: | |
Качество: WEBRip
Тип релиза: Без хардсаба
Формат видео: MKV
Автор рипа: HorribleSubs
Видео: AVC, 8 bits, 1920x1080, 8000~ kbps, 23,976 fps
Аудио: RUS, AAC, 48000 Hz, 192 kbps, 2 ch; Язык Русский (в составе контейнера) ;
Аудио 2: JAP, AAC, 44100 Hz, 128 kbps, 2 ch;
Субтитры: RUS, ASS (надписи, в составе контейнера) Anilibria (Sekai)
Субтитры: RUS, ASS (полные, в составе контейнера) Crunchyroll


Формат : AVCФормат/Информация : Advanced Video CodecПрофиль формата : High@L4Настройки формата : CABAC / 4 Ref FramesПараметр CABAC формата : ДаПараметр RefFrames формата : 4 кадраИдентификатор кодека : V_MPEG4/ISO/AVCПродолжительность : 23 м. 40 с.Битрейт : 8000 Кбит/секШирина : 1920 пикселейВысота : 1080 пикселейСоотношение сторон : 16:9Режим частоты кадров : ПостоянныйЧастота кадров : 23,976 (24000/1001) кадра/секЦветовое пространство : YUVСубдискретизация насыщенности : 4:2:0Битовая глубина : 8 битТип развёртки : ПрогрессивнаяБит/(Пиксели*Кадры) : 0.161Размер потока : 1,31 Гбайт (96%)Заголовок : [HorribleSubs]Библиотека кодирования : x264 core 142Настройки программы : cabac=1 / ref=4 / deblock=1:1:1 / analyse=0x3:0x113 / me=umh / subme=8 / psy=1 / psy_rd=0.40:0.00 / mixed_ref=1 / me_range=16 / chroma_me=1 / trellis=1 / 8x8dct=1 / cqm=0 / deadzone=21,11 / fast_pskip=1 / chroma_qp_offset=-2 / threads=12 / lookahead_threads=2 / sliced_threads=0 / nr=0 / decimate=1 / interlaced=0 / bluray_compat=0 / constrained_intra=0 / bframes=0 / weightp=2 / keyint=96 / keyint_min=48 / scenecut=40 / intra_refresh=0 / rc_lookahead=48 / rc=2pass / mbtree=1 / bitrate=8000 / ratetol=1.0 / qcomp=0.60 / qpmin=0 / qpmax=69 / qpstep=4 / cplxblur=20.0 / qblur=0.5 / vbv_maxrate=12000 / vbv_bufsize=18000 / nal_hrd=none / filler=0 / ip_ratio=1.40 / aq=1:0.60Язык : JapaneseDefault : ДаForced : Да

Аудио #1Идентификатор : 2Формат : AAC LCФормат/Информация : Advanced Audio Codec Low ComplexityИдентификатор кодека : A_AAC-2Продолжительность : 23 м. 40 с.Битрейт : 192 Кбит/секКаналы : 2 каналаChannelLayout : L RЧастота : 48,0 КГцЧастота кадров : 46,875 кадров/сек (1024 SPF)Метод сжатия : С потерямиРазмер потока : 32,5 Мбайт (2%)Заголовок : AniLibriaЯзык : RussianDefault : ДаForced : Нет

Аудио #2Идентификатор : 3Формат : AAC LCФормат/Информация : Advanced Audio Codec Low ComplexityИдентификатор кодека : A_AAC-2Продолжительность : 23 м. 40 с.Битрейт : 128 Кбит/секКаналы : 2 каналаChannelLayout : L RЧастота : 44,1 КГцЧастота кадров : 43,066 кадра/сек (1024 SPF)Метод сжатия : С потерямиРазмер потока : 21,7 Мбайт (2%)Заголовок : OriginalЯзык : JapaneseDefault : НетForced : Нет

ТекстИдентификатор : 4Формат : ASSИдентификатор кодека : S_TEXT/ASSИдентификатор кодека/Информация : Advanced Sub Station AlphaПродолжительность : 3 м. 40 с.Битрейт : 85 бит/секElementCount : 22Метод сжатия : Без потерьРазмер потока : 2,30 Кбайт (0%)Заголовок : НадписиЯзык : RussianDefault : ДаForced : Нет

01. High School Prodigies Come to in Another World (Старшеклассникики прибыли в другой мир)
02. Masato Is Serious About Making Money (Похоже, Масато серьёзно решил заработать много денег)
03. It Seems Roo Can Decide Her Own Worth! (Похоже, Луу сама может определить, чего стоит!)
04. It Seems Tsukasa has Resolved to Change the World! (Похоже, Цукаса решил изменить мир!)
05. It Seems Akatsuki''s Becoming God Akatsuki! (Похоже, Акацки становится богом Акацки!)
06. It Seems Lyrule''s Growing Closer to Him! (Похоже Лирул сближается с ним!)
07. It Seems Shinobu Has a Shinobi`s Intuition! (Похоже, у Синобу интуиция ниндзя!)
08. It Seems Aoi''s Specs are Greater Than Imagined! (Похоже, техники Аой еще лучше чем все думали)
09. It Seems Tsukasa Has Seen Through Everything! (Похоже, Цукаса всё предусмотрел!)
10. It Seems Ringo`s Worked Up the Courage to Become a Hunter! (Похоже, Ринго набралась смелости стать охотницей!)
11. It Seems Keine Can''t Stand Naughty Boys! (Похоже Кейн, не прощает дрянных мальчишек!)
12. It Seems High School Prodigies Have It Easy Even In Another World! (Похоже, старшеклассники позволили себе жизнь в другом мире!)


Добавлена 12-я серия, перекачайте торрент-файл!
Релиз завершён!

Внимание! AdBlock блокирует показ скриншотов, все вопросы к разработчикам )))
Трекер:  [ 18-Фев-2020 23:41 ]

  

Скачать .torrent

Размер .torrent файла 43 KB


Размер: 16.5 GB
Хэш (hash) релиза: 97ab278df22c92cb47bd393599239df03142b45f
Подписка на обновления:
dpd RU

Еще никто не оставлял запись к записи скачать торрент Старшеклассники позволили себе жизнь в другом мире! Choujin Koukousei-tachi wa Isekai demo Yoyuu de Ikinuku you desu! . Будь первым!

!Обратная связь