Скачать через торрент Промар: Гало Промар: Лио бесплатно Аниме Все серии на русском torrent

Статистика раздачи
Размер:  1.43 GB   |    Зарегистрирован:  5 месяцев 24 дня   |    .torrent скачан:  6 раз   |   
Раздают:  1  
 

Скачать Промар: Гало / Промар: Лио / Promare: Galo-hen / Promare: Lio-hen [ONA] [2 из 2] [Без хардсаба] [JAP+Sub] [2019, меха, фантастика, BDRip] [1080p] через torrent

 
Sprinthost
загрузка...
 
Автор Сообщение

Galfimbul ghost

avatar Galfimbul ghost


Продолжительность: 2 эп. по 10 мин.
Год выпуска: 2019
Страна: Япония
Тип: ONA
Жанр: меха, фантастика
Режиссёр: Хироюки Имаиси
Студия: Trigger
Описание: Небольшая предыстория аниме «Промар», происходящая за день до событий фильма.
А также небольшая предыстория аниме «Промар», сфокусированная на фигуре Лио.
Информационные ссылки: AniDB || World Art || MAL || ANN
Качество: BDRip
Рип: [ReinForce]
Формат видео: MKV
Наличие линковки: нет
Тип релиза: без хардсаба
Видео: MPEG4 (AVC), 8 bit, 1920x1080, 23.976 fps, 8171 Kbps
Аудио: JAP: FLAC, 48.0 kHz, 2ch, 1572 Kbps
Субтитры: RUS: ASS (в составе контейнера)
#Русские Субтитры: PrometoSubs
Переводчик: Delta+, Cristal bon, Di Green, Редактор: Di Green, ОрькинТортик, Оформление: Di Green, ,
Лирика: Di Green, Sombra Asakura, Координатор проекта: Natsu Sakurai
Общее
Уникальный идентификатор : 74804296491007788441883758407153798531 (0x3846C890B5861F005707EA55C46ECD83)
Полное имя : E:\Раздачи\[ReinForce] Promare ONA [BDRip 1080p x264 FLAC]\[ReinForce] Promare Galo-hen [BDRip 1080p x264 FLAC].mkv
Формат : Matroska
Версия формата : Version 4
Размер файла : 696 Мбайт
Продолжительность : 9 м. 56 с.
Режим общего битрейта : Переменный
Общий поток : 9785 Кбит/сек
Дата кодирования : UTC 2020-02-17 18:07:24
Программа кодирования : mkvmerge v43.0.0 (''''''''''''''''The Quartermaster'''''''''''''''') 64-bit
Библиотека кодирования : libebml v1.3.10 + libmatroska v1.5.2
Attachments : 10755.otf / 10920.otf / 10950.otf / 13891.ttf / 14364.ttf / 17647.otf / STENCIL.TTF / trebucbd.ttf / trebucbi.ttf

Видео
Идентификатор : 1
Формат : AVC
Формат/Информация : Advanced Video Codec
Профиль формата : High@L4
Настройки формата : CABAC / 4 Ref Frames
Параметр CABAC формата : Да
Параметр RefFrames формата : 4 кадра
Идентификатор кодека : V_MPEG4/ISO/AVC
Продолжительность : 9 м. 56 с.
Битрейт : 8171 Кбит/сек
Ширина : 1920 пикселей
Высота : 1080 пикселей
Соотношение сторон : 16:9
Режим частоты кадров : Постоянный
Частота кадров : 23,976 (24000/1001) кадра/сек
Цветовое пространство : YUV
Субдискретизация насыщенности : 4:2:0
Битовая глубина : 8 бит
Тип развёртки : Прогрессивная
Бит/(Пиксели*Кадры) : 0.164
Размер потока : 581 Мбайт (83%)
Библиотека кодирования : x264 core 157
Настройки программы : cabac=1 / ref=4 / deblock=1:-2:-2 / analyse=0x3:0x113 / me=umh / subme=9 / psy=1 / psy_rd=0.70:0.00 / mixed_ref=0 / me_range=32 / chroma_me=1 / trellis=2 / 8x8dct=1 / cqm=0 / deadzone=21,11 / fast_pskip=1 / chroma_qp_offset=-2 / threads=8 / lookahead_threads=1 / sliced_threads=0 / nr=0 / decimate=1 / interlaced=0 / bluray_compat=0 / constrained_intra=0 / bframes=9 / b_pyramid=2 / b_adapt=2 / b_bias=0 / direct=3 / weightb=1 / open_gop=0 / weightp=2 / keyint=250 / keyint_min=23 / scenecut=40 / intra_refresh=0 / rc_lookahead=40 / rc=crf / mbtree=1 / crf=16.0 / qcomp=0.70 / qpmin=10 / qpmax=20 / qpstep=4 / ip_ratio=1.40 / aq=1:1.00
Default : Да
Forced : Нет

Аудио
Идентификатор : 2
Формат : FLAC
Формат/Информация : Free Lossless Audio Codec
Идентификатор кодека : A_FLAC
Продолжительность : 9 м. 56 с.
Вид битрейта : Переменный
Битрейт : 1572 Кбит/сек
Каналы : 2 канала
ChannelLayout : L R
Частота : 48,0 КГц
Частота кадров : 10,417 кадров/сек (4608 SPF)
Битовая глубина : 24 бит
Метод сжатия : Без потерь
Размер потока : 112 Мбайт (16%)
Библиотека кодирования : Lavf58.29.100
Язык : Japanese
Default : Да
Forced : Нет

Текст
Идентификатор : 3
Формат : ASS
Идентификатор кодека : S_TEXT/ASS
Идентификатор кодека/Информация : Advanced Sub Station Alpha
Продолжительность : 9 м. 29 с.
Битрейт : 190 бит/сек
ElementCount : 184
Метод сжатия : Без потерь
Размер потока : 13,2 Кбайт (0%)
Язык : Russian
Default : Да
Forced : Нет
Озвучка от Reanimedia будет добавлена при появлении её в сети!

Внимание! AdBlock блокирует показ скриншотов, все вопросы к разработчикам )))
Трекер:  [ 18-Фев-2020 23:42 ]

  

Скачать .torrent

Размер .torrent файла 2 KB


Размер: 1.43 GB
Хэш (hash) релиза: 64171ed5b1b36f86a91f36acb0db76088044805e
Подписка на обновления:
dpd RU

Еще никто не оставлял запись к записи скачать торрент Промар: Гало Промар: Лио . Будь первым!

!Обратная связь