Скачать через торрент Девушка в багряных сумерках Akanesasu Shoujo бесплатно Аниме Все серии на русском torrent

Статистика раздачи
Размер:  14.79 GB   |    Зарегистрирован:  5 месяцев 14 дней   |    .torrent скачан:  7 раз   |   
Раздают:  1  
 

Скачать Девушка в багряных сумерках / Akanesasu Shoujo [TV] [12 из 12] [Без хардсаба] [JAP, Sub] [2018, приключения, фэнтези, BDRip] [1080p] через torrent

 
Sprinthost
загрузка...
 
Автор Сообщение

Galfimbul ghost

avatar Galfimbul ghost


Девушка в багряных сумерках / Akanesasu Shoujo


Страна: Япония
Год выпуска: 2018
Жанр: приключения, фэнтези
Тип: TV
Продолжительность: 12 эп, по ~24 мин.
Режиссер: Абэ Юйти
Студия: DANDELION ANIMATION STUDIO LLC & Juumonji
AniDB | World Art | MAL
Описание: Октябрь 2018 года. Жизнерадостная Асука Цутимия вместе со своими друзьями основала клуб по интересам «Радиоклуб Кристалл». Однажды одноклубницы решают проверить городскую легенду и провести некий ритуал. Легенда легендой, но при определённых условиях она перестаёт быть просто забавой...
Качество: BDRip
Тип релиза: Без хардсаба
Формат видео: MKV
Наличие линковки: Нет
Наличие частей: Да
Релиз/Автор рипа: Snow-Raws
Видео: HEVC; 1920x1080; ~3 585 kb/s; 23,976 fps; 10 bits
Аудио: FLAC; ~1 387 kb/s; 48.0 kHz; 2 ch; Язык: Японский
Аудио 2: FLAC; ~1 324 kb/s; 48.0 kHz; 2 ch; Язык: Японский (commentary)
Субтитры: ASS, внешние; Язык субтитров: русский; Перевод: Спиридонов Денис


GeneralUnique ID : 177319743763312456448800954280497355374 (0x85668A59424AB4DB87AAB80F965F9A6E)Complete name : Akanesasu Shoujo BDRip\[Snow-Raws] あかねさす少女 第01話 (BD 1920x1080 HEVC-YUV420P10 FLACx2).mkvFormat : MatroskaFormat version : Version 4File size : 1.04 GiBDuration : 23 min 41 sOverall bit rate mode : VariableOverall bit rate : 6 299 kb/sEncoded date : UTC 2019-08-07 16:01:48Writing application : mkvmerge v9.4.2 (''So High'') 64bitWriting library : libebml v1.3.4 + libmatroska v1.4.5

VideoID : 1Format : HEVCFormat/Info : High Efficiency Video CodingFormat profile : Main 10@L4@MainCodec ID : V_MPEGH/ISO/HEVCDuration : 23 min 41 sBit rate : 3 585 kb/sWidth : 1 920 pixelsHeight : 1 080 pixelsDisplay aspect ratio : 16:9Frame rate mode : ConstantFrame rate : 23.976 (24000/1001) FPSColor space : YUVChroma subsampling : 4:2:0Bit depth : 10 bitsBits/(Pixel*Frame) : 0.072Stream size : 607 MiB (57%)Writing library : x265 3.1+5-9c5c9cef2a86:[Windows][GCC 9.1.0][64 bit] 10bitEncoding settings : cpuid=1111039 / frame-threads=2 / numa-pools=6 / wpp / no-pmode / no-pme / no-psnr / no-ssim / log-level=2 / input-csp=1 / input-res=1920x1080 / interlace=0 / total-frames=0 / level-idc=0 / high-tier=1 / uhd-bd=0 / ref=4 / no-allow-non-conformance / no-repeat-headers / annexb / no-aud / no-hrd / info / hash=0 / no-temporal-layers / no-open-gop / min-keyint=1 / keyint=324 / gop-lookahead=0 / bframes=8 / b-adapt=2 / b-pyramid / bframe-bias=0 / rc-lookahead=80 / lookahead-slices=0 / scenecut=40 / radl=0 / no-splice / no-intra-refresh / ctu=32 / min-cu-size=8 / no-rect / no-amp / max-tu-size=32 / tu-inter-depth=2 / tu-intra-depth=2 / limit-tu=2 / rdoq-level=2 / dynamic-rd=0.00 / no-ssim-rd / signhide / no-tskip / nr-intra=0 / nr-inter=0 / no-constrained-intra / no-strong-intra-smoothing / max-merge=3 / limit-refs=2 / no-limit-modes / me=3 / subme=4 / merange=57 / temporal-mvp / weightp / no-weightb / no-analyze-src-pics / deblock=-1:-1 / no-sao / no-sao-non-deblock / rd=6 / early-skip / rskip / no-fast-intra / no-tskip-fast / no-cu-lossless / b-intra / no-splitrd-skip / rdpenalty=0 / psy-rd=2.00 / psy-rdoq=0.90 / no-rd-refine / no-lossless / cbqpoffs=-1 / crqpoffs=-1 / rc=crf / crf=15.7 / qcomp=0.65 / qpstep=4 / stats-write=0 / stats-read=0 / ipratio=1.40 / pbratio=1.30 / aq-mode=3 / aq-strength=0.90 / cutree / zone-count=0 / no-strict-cbr / qg-size=32 / no-rc-grain / qpmax=69 / qpmin=0 / no-const-vbv / sar=0 / overscan=0 / videoformat=5 / range=0 / colorprim=2 / transfer=2 / colormatrix=1 / chromaloc=0 / display-window=0cll=0,0 / min-luma=0 / max-luma=1023 / log2-max-poc-lsb=8 / vui-timing-info / vui-hrd-info / slices=1 / opt-qp-pps / opt-ref-list-length-pps / no-multi-pass-opt-rps / scenecut-bias=0.05 / no-opt-cu-delta-qp / no-aq-motion / no-hdr / no-hdr-opt / no-dhdr10-opt / no-idr-recovery-sei / analysis-reuse-level=5 / scale-factor=0 / refine-intra=0 / refine-inter=0 / refine-mv=0 / refine-ctu-distortion=0 / no-limit-sao / ctu-info=0 / no-lowpass-dct / refine-analysis-type=0 / copy-pic=1 / max-ausize-factor=1.0 / no-dynamic-refine / no-single-sei / no-hevc-aq / no-svt / no-field / qp-adaptation-range=1.00Language : JapaneseDefault : YesForced : NoColor range : LimitedMatrix coefficients : BT.709

Audio #1ID : 2Format : FLACFormat/Info : Free Lossless Audio CodecCodec ID : A_FLACDuration : 23 min 41 sBit rate mode : VariableBit rate : 1 387 kb/sChannel(s) : 2 channelsChannel layout : L RSampling rate : 48.0 kHzFrame rate : 11.719 FPS (4096 SPF)Bit depth : 24 bitsCompression mode : LosslessStream size : 235 MiB (22%)Writing library : libFLAC 1.2.1 (UTC 2007-09-17)Language : JapaneseDefault : YesForced : No

Audio #2ID : 3Format : FLACFormat/Info : Free Lossless Audio CodecCodec ID : A_FLACDuration : 23 min 41 sBit rate mode : VariableBit rate : 1 324 kb/sChannel(s) : 2 channelsChannel layout : L RSampling rate : 48.0 kHzFrame rate : 11.719 FPS (4096 SPF)Bit depth : 24 bitsCompression mode : LosslessStream size : 224 MiB (21%)Writing library : libFLAC 1.2.1 (UTC 2007-09-17)Language : JapaneseDefault : NoForced : No

Menu00:00:00.000 : en:00:00:00.00000:03:33.004 : en:00:03:33.00400:14:54.977 : en:00:14:54.97700:22:10.037 : en:00:22:10.037
1. Ritual at 4:44
2. Another Fragment
3. Before the Wedding Bells Ring
4. The Magnificent Five, or Eleven
5. The Hero in Me
6. Alone in the Island
7. Tu N`Es Pas Seule.
8. Asuka and Asuka
9. Facing Twilight
10. Liars` Party
11. You, the Honor Student
12. After the Twilight Falls


Внимание! AdBlock блокирует показ скриншотов, все вопросы к разработчикам )))
Трекер:  [ 18-Фев-2020 23:42 ]

  

Скачать .torrent

Размер .torrent файла 42 KB


Размер: 14.79 GB
Хэш (hash) релиза: 88da8835d52acef029aeb60e7788d3be3aae737e
Подписка на обновления:
dpd RU

Еще никто не оставлял запись к записи скачать торрент Девушка в багряных сумерках Akanesasu Shoujo . Будь первым!

!Обратная связь