Скачать через торрент Город невест Серии: 1-4 из 8 Фильм бесплатно в хорошем качестве torrent

Скачивайте на UnionPeer.org фильмы через торрент без регистрации. Новинки кино в хорошем качестве через торрент. На UnionPeer.org можно скачать через торрент фильмы 2014 и 2015 годов. Самые новые фильмы.

Скачать торрент Город невест Серии: 1-4 из 8 бесплатно через .torrent фильм мультфильм сериал

Статистика раздачи
Размер:  9.17 GB   |    Зарегистрирован:  8 месяцев   |    .torrent скачан:  8 раз   |   
Раздают:  1  
 

Скачать Город невест / Серии: 1-4 из 8 (Алексей Рудаков) [2019, криминал, мелодрама, HDTV 1080i] через torrent

 
 
Автор Сообщение

Galfimbul ghost

avatar Galfimbul ghost


Город невест

Год выпуска: 2019
Производство: Россия, Студия "Герион", Киностудия "АРС"
Жанр: криминал, мелодрама
Продолжительность: ~00:52:00
Субтитры: нет

Режиссёр: Алексей Рудаков

В ролях: Светлана Смирнова-Марцинкевич, Тимофей Каратаев, Роман Полянский, Юлия Галкина, Глафира Козулина, Вероника Пляшкевич, Евгений Сидихин, Анастасия Ступина, Олег Коц, Андрей Милюхин, Алексей Лысенко

Описание: Город Иваново – «текстильная столица» России, «город невест». Здесь живут и работают на ткацкой фабрике четыре подруги – Настя, Алина, Соня и Катя. Подруги всегда поддерживают друг друга. И у каждой свои проблемы в личной жизни. Всё меняется в день свадьбы Настиного брата – Лёни. Его находят мёртвым в реке, а Юру – жениха Насти – обвиняют в убийстве. Простые и понятные отношения всё больше запутываются в тугой клубок преступлений и лжи. Люди решаются на поступки, которые раньше и вообразить не могли. И всё труднее становится понять – кто же здесь на самом деле жертва, а кто – кукловод?

Реклама: Нет

Сэмпл: http://sendfile.su/1545796

Качество: HDTV 1080i
Формат: TS
Видео кодек: H.264
Аудио кодек: MP2
Видео: MPEG4 Video (H264), 1920х1080, 25 fps, ~5800 Kbps, bit/pixel 0.112
Аудио: MP2, 48000Hz, stereo, 192 kbps, 2 ch
Общее
Идентификатор : 1 (0x1)
Полное имя : D:\Gorod nevest 2019 HDTV 1080i ( rip by mutabor369 )\Gorod nevest..1 seriya.2019.HDTV 1080i.by.mutabor369.ts
Формат : MPEG-TS
Размер файла : 2,27 Гбайт
Продолжительность : 51 м. 25 с.
Режим общего битрейта : Переменный
Общий поток : 6326 Кбит/сек

Видео
Идентификатор : 211 (0xD3)
Идентификатор меню : 1 (0x1)
Формат : AVC
Формат/Информация : Advanced Video Codec
Профиль формата : High@L4
Настройки формата : CABAC / 4 Ref Frames
Параметр CABAC формата : Да
Параметр RefFrames формата : 4 кадра
Параметр GOP формата : M=4, N=28
Идентификатор кодека : 27
Продолжительность : 51 м. 25 с.
Битрейт : 5820 Кбит/сек
Ширина : 1920 пикселей
Высота : 1080 пикселей
Соотношение сторон : 16:9
Частота кадров : 25,000 кадров/сек
Стандарт вещания : Component
Цветовое пространство : YUV
Субдискретизация насыщенности : 4:2:0
Битовая глубина : 8 бит
Тип развёртки : Чересстрочная
Метод сохранения типа развёртки : Раздельные поля
Порядок развёртки : Верхнее поле первое
Бит/(Пиксели*Кадры) : 0.112
Размер потока : 2,09 Гбайт (92%)
Цветовой диапазон : Limited
Основные цвета : BT.709
Характеристики трансфера : BT.709
Коэффициенты матрицы : BT.709

Аудио
Идентификатор : 221 (0xDD)
Идентификатор меню : 1 (0x1)
Формат : MPEG Audio
Версия формата : Version 1
Профиль формата : Layer 2
Идентификатор кодека : 3
Продолжительность : 51 м. 25 с.
Вид битрейта : Постоянный
Битрейт : 192 Кбит/сек
Каналы : 2 канала
Частота : 48,0 КГц
Частота кадров : 41,667 кадра/сек (1152 SPF)
Метод сжатия : С потерями
Размер потока : 70,6 Мбайт (3%)
Язык : Russian
Внимание! Раздача ведётся путём добавления новых серий; при каждом добавлении создаётся новый торрент.
Чтобы начать докачку новой серии, пользователям необходимо сделать следующее:
1. Остановить скачивание;
2. Удалить старый торрент у себя из клиента (старые серии удалять не надо);
3. Скачать новый торрент и запустить его у себя в клиенте вместо старого, при этом указать клиенту путь в старую папку куда и должно происходить скачивание новых серий. Ваш клиент при этом должен произвести хеширование (проверку) старой папки и будет докачивать только те серии, которых у вас ещё нет. Старые серии при этом не удаляются, а продолжают раздаваться! Eсли вы уже удалили старые серии, то предотвратить повторную закачку старых серий можно, отжав галочку в соответствующих местах при запуске нового торрента.


Внимание! AdBlock блокирует показ скриншотов, все вопросы к разработчикам )))
Трекер:  [ 19-Фев-2020 00:42 ]

  

Скачать .torrent

Размер .torrent файла 23 KB


Размер: 9.17 GB
Хэш (hash) релиза: 1cc537169b7254415abda5dbde1e9b94ac89693d
Подписка на обновления:

Торренты, похожие на Город невест Серии: 1-4 из 8 скачать торрент

Форум Название Автор Размер S L Добавлен
Российские сериалы ·· Город невест / Серии: 1-4 из 8 (Алексей Рудаков) [2020, мелодрама, SATRip-AVC] Galfimbul ghost 26429959722.46 GB 0 0 1582064909

01:28

19-Фев-20

Еще никто не оставлял запись к записи скачать торрент Город невест Серии: 1-4 из 8 . Будь первым!

!Обратная связь