Скачать через торрент Фитнес Сезон: 3 Фильм бесплатно в хорошем качестве torrent

Скачивайте на UnionPeer.org фильмы через торрент без регистрации. Новинки кино в хорошем качестве через торрент. На UnionPeer.org можно скачать через торрент фильмы 2014 и 2015 годов. Самые новые фильмы.

Скачать торрент Фитнес Сезон: 3 бесплатно через .torrent фильм мультфильм сериал

Статистика раздачи
Размер:  3.42 GB   |    Зарегистрирован:  1 месяц 17 дней   |    .torrent скачан:  24 раза   |   
Раздают:  1  
 

Скачать Фитнес / Сезон: 3 / Серии: 1-10 из 20 (Кирилл Васильев) [2020, комедия, WEBRip] через torrent

 
загрузка...
 
Автор Сообщение

Galfimbul ghost

avatar Galfimbul ghost


Фитнес

Год выпуска: 2020
Производство: Yellow, Black and White
Жанр: комедия
Продолжительность: ~00:24:00 серия
Субтитры: нет

Режиссёр: Кирилл Васильев

В ролях: Софья Зайка, Светлана Камынина, Илья Глинников, Михаил Трухин, Татьяна Храмова, Роман Курцын, Борис Дергачёв, Екатерина Щербакова, Кристина Юдичева, Марианна Шульц, Ольга Баранова, Евгений Михеев, Дмитрий Чеботарёв, Алексей Демидов, Эвелина Блёданс

Описание: Новая владелица «СуперФита» Бэлла Ринатовна берет управление клубом под жесткий контроль. Бескомпромиссная хозяйка похоронного бюро намерена извлечь из нового бизнеса максимум пользы. Поэтому в клубе стремительно меняются правила, а в зале внезапно появляется боксерский ринг. Именно на нем Асе Королевой предстоит побороться с Бэллой за судьбу клуба, а, возможно, и за свое будущее. И, похоже, у девушки почти нет шансов победить опытного спарринг-партнера. К счастью, в клубе появляется тренер по боксу, который готов подготовить Асю. Но вспыльчивый характер и поведение раздолбая очень быстро ставят работу тренера под угрозу.

Реклама: Нет.

Кинопоиск
Sample

Качество: WEBRip - 25Kuzmich
Формат: AVI
Видео кодек: XviD
Аудио кодек: AC3
Видео: 720x400 (1.80:1), 25 fps, XviD ~1850 kbps avg, 0.256 bit/pixel
Аудио: 48.0 kHz, AC3 Dolby Digital, 2/0 (L,R) ch, ~ 192 kbps
Раздача ведётся путём добавления новых серий, при каждом добавлении создаётся новый торрент. Чтобы начать докачку новой серии, пользователям необходимо сделать следующее:

- Остановить скачивание.
- Удалить старый торрент у себя из клиента (старые серии удалять не надо).
- Скачать новый торрент и запустить его у себя в клиенте вместо старого, при этом указать клиенту путь в старую папку куда и должно происходить скачивание новых серий.

Ваш клиент при этом должен произвести хеширование (проверку) старой папки (если не производит сам - помогите ему сделать это), и будет докачивать только те серии которых у вас ещё нет. Старые серии при этом не удаляются, а продолжают раздаваться!
Если вы уже удалили старые серии, то предотвратить повторную закачку старых серий можно, отжав галочку в соответствующих местах при запуске нового торрента. По возможности, желательно не удалять старые серии как можно дольше, чтобы релизер не столько продолжал раздавать старые серии, а смог сконцентрироваться на новых.
General
Complete name : D:\Fitnes.S03.WEB-DLRip.25Kuzmich\Fitnes.s03.e01.WEB-DLRip.25Kuzmich.avi
Format : AVI
Format/Info : Audio Video Interleave
File size : 350 MiB
Duration : 23 min 56 s
Overall bit rate : 2 046 kb/s
Writing application : VirtualDubMod 1.5.10.3 | www.virtualdub-fr.org || (build 2550/release)
Writing library : VirtualDubMod build 2550/release

Video
ID : 0
Format : MPEG-4 Visual
Format profile : Advanced Simple@L5
Format settings : BVOP1
Format settings, BVOP : 1
Format settings, QPel : No
Format settings, GMC : No warppoints
Format settings, Matrix : Default (MPEG)
Codec ID : XVID
Codec ID/Hint : XviD
Duration : 23 min 56 s
Bit rate : 1 844 kb/s
Width : 720 pixels
Height : 400 pixels
Display aspect ratio : 16:9
Frame rate : 25.000 FPS
Color space : YUV
Chroma subsampling : 4:2:0
Bit depth : 8 bits
Scan type : Progressive
Compression mode : Lossy
Bits/(Pixel*Frame) : 0.256
Stream size : 316 MiB (90%)
Writing library : XviD 73

Audio
ID : 1
Format : AC-3
Format/Info : Audio Coding 3
Codec ID : 2000
Duration : 23 min 56 s
Bit rate mode : Constant
Bit rate : 192 kb/s
Channel(s) : 2 channels
Channel positions : Front: L R
Sampling rate : 48.0 kHz
Frame rate : 31.250 FPS (1536 SPF)
Bit depth : 16 bits
Compression mode : Lossy
Stream size : 32.9 MiB (9%)
Alignment : Split accross interleaves
Interleave, duration : 40 ms (1.00 video frame)
Interleave, preload duratio : 500 ms
Service kind : Complete Main


Трекер:  [ 19-Фев-2020 00:42 ]

  

Скачать .torrent

Размер .torrent файла 18 KB


Размер: 3.42 GB
Хэш (hash) релиза: 2210bd252e007f551713d709d160d9900243fb38
Подписка на обновления:

Торренты, похожие на Фитнес Сезон: 3 скачать торрент

Форум Название Автор Размер S L Добавлен
Российские сериалы ·· Фитнес / Сезон: 3 / Серии: 1-10 из 20 (Кирилл Васильев) [2020, комедия, WEBRip 720p] Galfimbul ghost 54524096575.08 GB 0 0 1582064988

01:29

19-Фев-20

Российские сериалы ·· Фитнес / Сезон: 3 / Серии: 1-10 из 20 (Кирилл Васильев) [2020, комедия, WEBRip 1080p] Galfimbul ghost 81247429607.57 GB 0 0 1582064773

01:26

19-Фев-20

Еще никто не оставлял запись к записи скачать торрент Фитнес Сезон: 3 . Будь первым!

!Обратная связь