Скачать через торрент Фитнес Сезон: 3 Фильм бесплатно в хорошем качестве torrent

Скачивайте на UnionPeer.org фильмы через торрент без регистрации. Новинки кино в хорошем качестве через торрент. На UnionPeer.org можно скачать через торрент фильмы 2014 и 2015 годов. Самые новые фильмы.

Скачать торрент Фитнес Сезон: 3 бесплатно через .torrent фильм мультфильм сериал

Статистика раздачи
Размер:  7.57 GB   |    Зарегистрирован:  9 месяцев   |    .torrent скачан:  44 раза   |   
Раздают:  1  
 

Скачать Фитнес / Сезон: 3 / Серии: 1-10 из 20 (Кирилл Васильев) [2020, комедия, WEBRip 1080p] через torrent

 
 
Автор Сообщение

Galfimbul ghost

avatar Galfimbul ghost


Фитнес

Год выпуска: 2020
Производство: Yellow, Black and White
Жанр: комедия
Продолжительность: ~00:24:00 серия
Субтитры: нет

Режиссёр: Кирилл Васильев

В ролях: Софья Зайка, Светлана Камынина, Илья Глинников, Михаил Трухин, Татьяна Храмова, Роман Курцын, Борис Дергачёв, Екатерина Щербакова, Кристина Юдичева, Марианна Шульц, Ольга Баранова, Евгений Михеев, Дмитрий Чеботарёв, Алексей Демидов, Эвелина Блёданс

Описание: Новая владелица «СуперФита» Бэлла Ринатовна берет управление клубом под жесткий контроль. Бескомпромиссная хозяйка похоронного бюро намерена извлечь из нового бизнеса максимум пользы. Поэтому в клубе стремительно меняются правила, а в зале внезапно появляется боксерский ринг. Именно на нем Асе Королевой предстоит побороться с Бэллой за судьбу клуба, а, возможно, и за свое будущее. И, похоже, у девушки почти нет шансов победить опытного спарринг-партнера. К счастью, в клубе появляется тренер по боксу, который готов подготовить Асю. Но вспыльчивый характер и поведение раздолбая очень быстро ставят работу тренера под угрозу.

Реклама: Нет.

Кинопоиск
Sample

Качество: WEBRip 1080p - Getty
Формат: MKV
Видео кодек: H.264
Аудио кодек: AC3
Видео: MPEG4 AVC Video, H264, 16:9, 1920x1072, 25 fps, ~4500 kbps, 0.087 bit/pixel
Аудио: AC3 Dolby Digital, 48.0 kHz, 2/0 (L,R) ch, 192 kbps
Раздача ведётся путём добавления новых серий, при каждом добавлении создаётся новый торрент. Чтобы начать докачку новой серии, пользователям необходимо сделать следующее:

- Остановить скачивание.
- Удалить старый торрент у себя из клиента (старые серии удалять не надо).
- Скачать новый торрент и запустить его у себя в клиенте вместо старого, при этом указать клиенту путь в старую папку куда и должно происходить скачивание новых серий.

Ваш клиент при этом должен произвести хеширование (проверку) старой папки (если не производит сам - помогите ему сделать это), и будет докачивать только те серии которых у вас ещё нет. Старые серии при этом не удаляются, а продолжают раздаваться!
Если вы уже удалили старые серии, то предотвратить повторную закачку старых серий можно, отжав галочку в соответствующих местах при запуске нового торрента. По возможности, желательно не удалять старые серии как можно дольше, чтобы релизер не столько продолжал раздавать старые серии, а смог сконцентрироваться на новых.
General
Unique ID : 205758549281455886626275404869658188797 (0x9ACBA7B71711033CAC8FC15FF0AB9BFD)
Complete name : D:\Fitnes.S03.2020.WEB-DL.(1080p).Getty\Fitnes.s03e01.2020.WEB-DL.(1080p).Getty.mkv
Format : Matroska
Format version : Version 4 / Version 2
File size : 796 MiB
Duration : 23 min 56 s
Overall bit rate mode : Variable
Overall bit rate : 4 647 kb/s
Movie name : Fitnes.s03e01.2020.WEB-DL.(1080p).Getty
Encoded date : UTC 2020-02-07 15:32:44
Writing application : mkvmerge v7.8.0 (''River Man'') 32bit built on Mar 27 2015 16:18:02
Writing library : libebml v1.3.1 + libmatroska v1.4.2

Video
ID : 1
Format : AVC
Format/Info : Advanced Video Codec
Format profile : High@L4
Format settings : CABAC / 1 Ref Frames
Format settings, CABAC : Yes
Format settings, ReFrames : 1 frame
Format settings, GOP : M=1, N=50
Codec ID : V_MPEG4/ISO/AVC
Duration : 23 min 56 s
Bit rate mode : Variable
Bit rate : 4 454 kb/s
Maximum bit rate : 4 500 kb/s
Width : 1 920 pixels
Height : 1 072 pixels
Display aspect ratio : 16:9
Frame rate mode : Constant
Frame rate : 25.000 FPS
Color space : YUV
Chroma subsampling : 4:2:0
Bit depth : 8 bits
Scan type : Progressive
Bits/(Pixel*Frame) : 0.087
Stream size : 763 MiB (96%)
Default : Yes
Forced : No

Audio
ID : 2
Format : AC-3
Format/Info : Audio Coding 3
Codec ID : A_AC3
Duration : 23 min 56 s
Bit rate mode : Constant
Bit rate : 192 kb/s
Channel(s) : 2 channels
Channel positions : Front: L R
Sampling rate : 48.0 kHz
Frame rate : 31.250 FPS (1536 SPF)
Bit depth : 16 bits
Compression mode : Lossy
Stream size : 32.9 MiB (4%)
Service kind : Complete Main
Default : Yes
Forced : No


Внимание! AdBlock блокирует показ скриншотов, все вопросы к разработчикам )))
Трекер:  [ 19-Фев-2020 00:42 ]

  

Скачать .torrent

Размер .torrent файла 39 KB


Размер: 7.57 GB
Хэш (hash) релиза: f1b0d65df3c0c41c36ae1f7840d6a898886c63e0
Подписка на обновления:

Торренты, похожие на Фитнес Сезон: 3 скачать торрент

Форум Название Автор Размер S L Добавлен
Российские сериалы ·· Фитнес / Сезон: 3 / Серии: 1-10 из 20 (Кирилл Васильев) [2020, комедия, WEBRip 720p] Galfimbul ghost 54524096575.08 GB 0 0 1582064988

01:29

19-Фев-20

Российские сериалы ·· Фитнес / Сезон: 3 / Серии: 1-10 из 20 (Кирилл Васильев) [2020, комедия, WEBRip] Galfimbul ghost 36730060803.42 GB 0 0 1582064763

01:26

19-Фев-20

Еще никто не оставлял запись к записи скачать торрент Фитнес Сезон: 3 . Будь первым!

!Обратная связь