Скачать через торрент Триггер Серии: 1-5 из 16 Фильм бесплатно в хорошем качестве torrent

Скачивайте на UnionPeer.org фильмы через торрент без регистрации. Новинки кино в хорошем качестве через торрент. На UnionPeer.org можно скачать через торрент фильмы 2014 и 2015 годов. Самые новые фильмы.

Скачать торрент Триггер Серии: 1-5 из 16 бесплатно через .torrent фильм мультфильм сериал

Статистика раздачи
Размер:  9.34 GB   |    Зарегистрирован:  1 месяц 20 дней   |    .torrent скачан:  16 раз   |   
Раздают:  1  
 

Скачать Триггер / Серии: 1-5 из 16 (Дмитрий Тюрин) [2020, драма, WEBRip 1080p] через torrent

 
загрузка...
 
Автор Сообщение

Galfimbul ghost

avatar Galfimbul ghost


Триггер

Год выпуска: 2020
Производство: Кинокомпания «Среда» для Первого канала
Жанр: драма
Продолжительность: ~00:50:00 серия
Субтитры: нет

Режиссёр: Дмитрий Тюрин

В ролях: Максим Матвеев, Игорь Костолевский, Светлана Иванова, Виктория Маслова, Роман Маякин, Владислав Тирон, Ангелина Стречина, Марк Юсеф, Данила Дунаев, Ян Цапник, Даниил Воробьёв, Янина Малинчик, Олег Масленников-Войтов, Дарья Буткеева, Маруся Пестунова, Екатерина Соломатина, Хельга Филиппова, Екатерина Соколова-Жубер, Лиза Климова, Мария Ахметзянова, Антон Денисенко, Антонина Паперная, Сергей Гурьев, Максим Костромыкин, Екатерина Копанова, Олег Каменщиков

Описание: Психолог Артём Стрелецкий — сторонник «шоковой терапии» в лечении больных. Он считает, что единственный способ для человека решить свои проблемы — это понять себя и перестать себе врать. Если большинство психологов «нянчатся» с клиентами, по полгода выслушивают жалобы на жизнь, сочувствуют — и получают при этом немалые деньги за цикл сеансов, — то Артем постоянно провоцирует клиентов: оскорбляет их, смеется над ними, намеренно выталкивает из зоны психологического комфорта. Практика Артема процветает, пока однажды один из его пациентов не кончает жизнь самоубийством…

Реклама: Нет.

Кинопоиск

Sample

Качество: WEBRip 1080p - ExKinoRay
Формат: MKV
Видео кодек: H.264
Аудио кодек: AC3
Видео: MPEG4 AVC Video, H264, 16:9, 1920x1080, 25 fps, ~5000 kbps, 0.097 bit/pixel
Аудио: AC3 Dolby Digital, 48.0 kHz, 2/0 (L,R) ch, 256 kbps
Раздача ведётся путём добавления новых серий, при каждом добавлении создаётся новый торрент. Чтобы начать докачку новой серии, пользователям необходимо сделать следующее:

- Остановить скачивание.
- Удалить старый торрент у себя из клиента (старые серии удалять не надо).
- Скачать новый торрент и запустить его у себя в клиенте вместо старого, при этом указать клиенту путь в старую папку куда и должно происходить скачивание новых серий.

Ваш клиент при этом должен произвести хеширование (проверку) старой папки (если не производит сам - помогите ему сделать это), и будет докачивать только те серии которых у вас ещё нет. Старые серии при этом не удаляются, а продолжают раздаваться!
Если вы уже удалили старые серии, то предотвратить повторную закачку старых серий можно, отжав галочку в соответствующих местах при запуске нового торрента. По возможности, желательно не удалять старые серии как можно дольше, чтобы релизер не столько продолжал раздавать старые серии, а смог сконцентрироваться на новых.
General
Unique ID : 202820126321292805377581063333652916791 (0x9895BC4726516F2BAA0F9B2A95C6EA37)
Complete name : D:\Trigger.2020.WEB-DL.(1080p).ExKinoRay\Trigger.S01.E01.2020.WEB-DL.(1080p).ExKinoRay.mkv
Format : Matroska
Format version : Version 4 / Version 2
File size : 1.91 GiB
Duration : 50 min 50 s
Overall bit rate : 5 377 kb/s
Encoded date : UTC 2020-02-07 17:40:43
Writing application : mkvmerge v6.9.1 (''Blue Panther'') 64bit built on Apr 18 2014 18:23:38
Writing library : libebml v1.3.0 + libmatroska v1.4.1

Video
ID : 1
Format : AVC
Format/Info : Advanced Video Codec
Format profile : High@L4
Format settings : CABAC / 4 Ref Frames
Format settings, CABAC : Yes
Format settings, ReFrames : 4 frames
Codec ID : V_MPEG4/ISO/AVC
Duration : 50 min 50 s
Bit rate : 5 014 kb/s
Width : 1 920 pixels
Height : 1 080 pixels
Display aspect ratio : 16:9
Frame rate mode : Constant
Frame rate : 25.000 FPS
Color space : YUV
Chroma subsampling : 4:2:0
Bit depth : 8 bits
Scan type : Progressive
Bits/(Pixel*Frame) : 0.097
Stream size : 1.78 GiB (93%)
Default : Yes
Forced : No

Audio
ID : 2
Format : AC-3
Format/Info : Audio Coding 3
Codec ID : A_AC3
Duration : 50 min 50 s
Bit rate mode : Constant
Bit rate : 256 kb/s
Channel(s) : 2 channels
Channel positions : Front: L R
Sampling rate : 48.0 kHz
Frame rate : 31.250 FPS (1536 SPF)
Bit depth : 16 bits
Compression mode : Lossy
Stream size : 93.1 MiB (5%)
Language : Russian
Service kind : Complete Main
Default : Yes
Forced : No


Трекер:  [ 19-Фев-2020 00:42 ]

  

Скачать .torrent

Размер .torrent файла 47 KB


Размер: 9.34 GB
Хэш (hash) релиза: eca539de3c9a10086f78c8b381ecd3e2dc27666a
Подписка на обновления:

Торренты, похожие на Триггер Серии: 1-5 из 16 скачать торрент

Форум Название Автор Размер S L Добавлен
Российские сериалы ·· Триггер / Серии: 1-5 из 16 (Дмитрий Тюрин) [2020, драма, WEBRip] Galfimbul ghost 31460720642.93 GB 0 0 1582064921

01:28

19-Фев-20

Российские сериалы ·· Триггер / Серии: 1-5 из 16 (Дмитрий Тюрин) [2020, драма, WEBRip 720p] Galfimbul ghost 51474504884.79 GB 0 0 1582064894

01:28

19-Фев-20

Еще никто не оставлял запись к записи скачать торрент Триггер Серии: 1-5 из 16 . Будь первым!

!Обратная связь