Скачать через торрент Война семей Серии: 1-8 из 20 Фильм бесплатно в хорошем качестве torrent

Скачивайте на UnionPeer.org фильмы через торрент без регистрации. Новинки кино в хорошем качестве через торрент. На UnionPeer.org можно скачать через торрент фильмы 2014 и 2015 годов. Самые новые фильмы.

Скачать торрент Война семей Серии: 1-8 из 20 бесплатно через .torrent фильм мультфильм сериал

Статистика раздачи
Размер:  6.01 GB   |    Зарегистрирован:  7 месяцев   |    .torrent скачан:  73 раза   |   
Раздают:  1  
 

Скачать Война семей / Серии: 1-8 из 20 (Илья Фарфель, Евгений Корчагин) [2019, комедия, семейный, WEBRip 1080p] через torrent

 
Sprinthost
загрузка...
 
Автор Сообщение

Galfimbul ghost

avatar Galfimbul ghost


Война семей

Год выпуска: 2019
Производство: СУПЕР продакшн, "Yellow, Black and White"
Жанр: комедия, семейный
Продолжительность: ~00:24:00 серия
Субтитры: нет

Режиссёр: Илья Фарфель, Евгений Корчагин

В ролях: Егор Бероев, Александр Робак, Ольга Медынич, Светлана Колпакова, Арина Постникова, Арам Вардеванян, Пелагея Невзорова, Александра Флоринская, Алиса Клагиш, Джемал Тетруашвили, Любовь Тищенко, Юлия Томашевская, Юрий Скулябин, Елизавета Мазалова

Описание: Миша и Дима — друзья с детства. Общий бизнес, соседние дома без забора, дружба семьями — идиллия, которую, как казалось, невозможно разрушить. Грядущая свадьба детей должна была укрепить многолетний союз. Однако во время семейного торжества неожиданно вскрываются тайны, которые в один миг превращают лучших друзей в заклятых врагов.

Реклама: Нет.

Кинопоиск

Sample

Качество: WEBRip 1080p - Getty
Формат: MKV
Видео кодек: H.264
Аудио кодек: AC3
Видео: MPEG4 AVC Video, H264, 16:9, 1920x1072, 25 fps, ~4500 kbps, 0.087 bit/pixel
Аудио: AC3 Dolby Digital, 48.0 kHz, 2/0 (L,R) ch, 192 kbps
Раздача ведётся путём добавления новых серий, при каждом добавлении создаётся новый торрент. Чтобы начать докачку новой серии, пользователям необходимо сделать следующее:

- Остановить скачивание.
- Удалить старый торрент у себя из клиента (старые серии удалять не надо).
- Скачать новый торрент и запустить его у себя в клиенте вместо старого, при этом указать клиенту путь в старую папку куда и должно происходить скачивание новых серий.

Ваш клиент при этом должен произвести хеширование (проверку) старой папки (если не производит сам - помогите ему сделать это), и будет докачивать только те серии которых у вас ещё нет. Старые серии при этом не удаляются, а продолжают раздаваться!
Если вы уже удалили старые серии, то предотвратить повторную закачку старых серий можно, отжав галочку в соответствующих местах при запуске нового торрента. По возможности, желательно не удалять старые серии как можно дольше, чтобы релизер не столько продолжал раздавать старые серии, а смог сконцентрироваться на новых.
General
Unique ID : 231643233483638618232025279136722623965 (0xAE44DD2DAAE833F9B7F2489C03749DDD)
Complete name : D:\Voyna.semey.2019.WEB-DL.(1080p).Getty\Voyna.semey.e01-02.2019.WEB-DL.(1080p).Getty.mkv
Format : Matroska
Format version : Version 4 / Version 2
File size : 1.48 GiB
Duration : 45 min 17 s
Overall bit rate mode : Variable
Overall bit rate : 4 665 kb/s
Movie name : Voyna.semey.e01-02.2019.WEB-DL.(1080p).Getty
Encoded date : UTC 2020-02-07 15:38:26
Writing application : mkvmerge v7.8.0 (''River Man'') 32bit built on Mar 27 2015 16:18:02
Writing library : libebml v1.3.1 + libmatroska v1.4.2

Video
ID : 1
Format : AVC
Format/Info : Advanced Video Codec
Format profile : High@L4
Format settings : CABAC / 1 Ref Frames
Format settings, CABAC : Yes
Format settings, ReFrames : 1 frame
Format settings, GOP : M=1, N=50
Codec ID : V_MPEG4/ISO/AVC
Duration : 45 min 17 s
Bit rate mode : Variable
Bit rate : 4 500 kb/s
Width : 1 920 pixels
Height : 1 072 pixels
Display aspect ratio : 16:9
Frame rate mode : Constant
Frame rate : 25.000 FPS
Color space : YUV
Chroma subsampling : 4:2:0
Bit depth : 8 bits
Scan type : Progressive
Bits/(Pixel*Frame) : 0.087
Stream size : 1.41 GiB (96%)
Default : Yes
Forced : No

Audio
ID : 2
Format : AC-3
Format/Info : Audio Coding 3
Codec ID : A_AC3
Duration : 45 min 17 s
Bit rate mode : Constant
Bit rate : 192 kb/s
Channel(s) : 2 channels
Channel positions : Front: L R
Sampling rate : 48.0 kHz
Frame rate : 31.250 FPS (1536 SPF)
Bit depth : 16 bits
Compression mode : Lossy
Stream size : 62.2 MiB (4%)
Service kind : Complete Main
Default : Yes
Forced : No


Внимание! AdBlock блокирует показ скриншотов, все вопросы к разработчикам )))
Трекер:  [ 19-Фев-2020 00:42 ]

  

Скачать .torrent

Размер .torrent файла 31 KB


Размер: 6.01 GB
Хэш (hash) релиза: 315d4591165192a5f42d37825c54a23871ee2fcd
Подписка на обновления:

Торренты, похожие на Война семей Серии: 1-8 из 20 скачать торрент

Форум Название Автор Размер S L Добавлен
Российские сериалы ·· Война семей / Серии: 1-8 из 20 (Илья Фарфель, Евгений Корчагин) [2019, комедия, семейный, WEBRip 720p] Galfimbul ghost 43907453244.09 GB 0 0 1582064883

01:28

19-Фев-20

dpd RU

Еще никто не оставлял запись к записи скачать торрент Война семей Серии: 1-8 из 20 . Будь первым!

!Обратная связь