Скачать через торрент Красавица и воры Серии: 1-2 из 2 Фильм бесплатно в хорошем качестве torrent

Скачивайте на UnionPeer.org фильмы через торрент без регистрации. Новинки кино в хорошем качестве через торрент. На UnionPeer.org можно скачать через торрент фильмы 2014 и 2015 годов. Самые новые фильмы.

Скачать торрент Красавица и воры Серии: 1-2 из 2 бесплатно через .torrent фильм мультфильм сериал

Статистика раздачи
Размер:  1.09 GB   |    Зарегистрирован:  9 месяцев   |    .torrent скачан:  11 раз   |   
Раздают:  1  
 

Скачать Красавица и воры / Серии: 1-2 из 2 (Андрей Силкин) [2020, детектив, мелодрама, WEBRip] через torrent

 
 
Автор Сообщение

Galfimbul ghost

avatar Galfimbul ghost


Красавица и воры

Год выпуска: 2020
Производство: NRG FILM
Жанр: детектив, мелодрама
Продолжительность: ~00:44:00 серия
Субтитры: нет

Режиссёр: Андрей Силкин

В ролях: Светлана Антонова, Максим Щёголев, Анастасия Панина, Анатолий Лобоцкий, Максим Коновалов, Михаил Дорожкин, Ирина Баринова, Вахтанг Беридзе, Александр Красовский, Иван Гришанов

Описание: Главная героиня Валерия — следователь прокуратуры. Вся её жизнь — служба закону, в жертву которой принесена и недолгая семейная жизнь. Валерия готовится получить очередное звание. Однако вместо повышения её «временно отстраняют» от дел — пропало пустяковое дело о дорожном хулиганстве, которое вела наша героиня.

Реклама: Нет.

Кинопоиск
Sample

Качество: WEBRip - Files-x
Формат: AVI
Видео кодек: XviD
Аудио кодек: AC3
Видео: 720x400 (1.80:1), 25 fps, XviD ~1600 kbps avg, 0.222 bit/pixel
Аудио: 48.0 kHz, AC3 Dolby Digital, 2/0 (L,R) ch, ~ 192 kbps
General
Complete name : D:\Красавица и воры .2020.WEB-DLRip.Files-x\01. Красавица и воры .2020.WEB-DLRip.Files-x.avi
Format : AVI
Format/Info : Audio Video Interleave
File size : 554 MiB
Duration : 42 min 58 s
Overall bit rate : 1 802 kb/s
Writing application : VirtualDubMod 1.5.10.3 | www.virtualdub-fr.org || (build 2550/release)
Writing library : VirtualDubMod build 2550/release

Video
ID : 0
Format : MPEG-4 Visual
Format profile : Advanced Simple@L5
Format settings : BVOP1 / Custom Matrix
Format settings, BVOP : 1
Format settings, QPel : No
Format settings, GMC : No warppoints
Format settings, Matrix : Custom
Codec ID : XVID
Codec ID/Hint : XviD
Duration : 42 min 58 s
Bit rate : 1 600 kb/s
Width : 720 pixels
Height : 400 pixels
Display aspect ratio : 16:9
Frame rate : 25.000 FPS
Color space : YUV
Chroma subsampling : 4:2:0
Bit depth : 8 bits
Scan type : Progressive
Compression mode : Lossy
Bits/(Pixel*Frame) : 0.222
Stream size : 492 MiB (89%)
Writing library : XviD 73

Audio
ID : 1
Format : AC-3
Format/Info : Audio Coding 3
Codec ID : 2000
Duration : 42 min 58 s
Bit rate mode : Constant
Bit rate : 192 kb/s
Channel(s) : 2 channels
Channel positions : Front: L R
Sampling rate : 48.0 kHz
Frame rate : 31.250 FPS (1536 SPF)
Bit depth : 16 bits
Compression mode : Lossy
Stream size : 59.0 MiB (11%)
Alignment : Split accross interleaves
Interleave, duration : 40 ms (1.00 video frame)
Interleave, preload duratio : 500 ms
Service kind : Complete Main


Внимание! AdBlock блокирует показ скриншотов, все вопросы к разработчикам )))
Трекер:  [ 19-Фев-2020 00:42 ]

  

Скачать .torrent

Размер .torrent файла 11 KB


Размер: 1.09 GB
Хэш (hash) релиза: fa8360e84943fba4d5ad7f511ad1142f69a3c003
Подписка на обновления:

Торренты, похожие на Красавица и воры Серии: 1-2 из 2 скачать торрент

Форум Название Автор Размер S L Добавлен
Российские сериалы ·· Красавица и воры / Серии: 1-2 из 2 (Андрей Силкин) [2020, детектив, мелодрама, SATRip-AVC] Galfimbul ghost 11002881021.02 GB 0 0 1582065220

01:33

19-Фев-20

Российские сериалы ·· Красавица и воры / Серии: 1-2 из 2 (Андрей Силкин) [2020, детектив, мелодрама, WEBRip 720p] Galfimbul ghost 18248687861.7 GB 0 0 1582065182

01:33

19-Фев-20

Российские сериалы ·· Красавица и воры / Серии: 1-2 из 2 (Андрей Силкин) [2019, детектив, мелодрама, WEBRip-AVC] Galfimbul ghost 735973126702 MB 0 0 1582065166

01:32

19-Фев-20

Еще никто не оставлял запись к записи скачать торрент Красавица и воры Серии: 1-2 из 2 . Будь первым!

!Обратная связь