Скачать через торрент Гранд Сезон: 3 Фильм бесплатно в хорошем качестве torrent

Скачивайте на UnionPeer.org фильмы через торрент без регистрации. Новинки кино в хорошем качестве через торрент. На UnionPeer.org можно скачать через торрент фильмы 2014 и 2015 годов. Самые новые фильмы.

Скачать торрент Гранд Сезон: 3 бесплатно через .torrent фильм мультфильм сериал

Статистика раздачи
Размер:  2.34 GB   |    Зарегистрирован:  1 месяц 17 дней   |    .torrent скачан:  1 раз   |   
Раздают:  1  
 

Скачать Гранд / Сезон: 3 / Серии: 1-8 из ?? (Дмитрий Грибанов) [2019, комедия, WEBRip] через torrent

 
загрузка...
 
Автор Сообщение

Galfimbul ghost

avatar Galfimbul ghost


Гранд - 3

Год выпуска: 2019
Производство: Yellow, Black and White
Жанр: комедия
Продолжительность: ~00:25:00 серия
Субтитры: нет

Режиссёр: Дмитрий Грибанов

В ролях: Мила Сивацкая, Александр Лыков, Александра Кузенкина, Владислав Ветров, Наталья Щукина, Константин Белошапка, Александра Урсуляк, Елизавета Кононова, Александр Соколовский, Игорь Хрипунов, Николай Шрайбер, Марина Кондратьева, Дмитрий Фрид, Валерия Шкирандо, Алёна Коломина
Описание: Лев Глебович открывает новый загородный отель «Гранд» и предлагает Ксении Завгородней должность управляющей. Новое место, новый персонал и новые интриги. Бывшей горничной предстоит заслужить авторитет в коллективе и справиться с катастрофой по имени Рита — дочерью Льва Глебовича.

Реклама: Нет.

Кинопоиск
Sample

Качество: WEBRip - 25Kuzmich
Формат: AVI
Видео кодек: XviD
Аудио кодек: AC3
Видео: 720x400 (1.80:1), 25 fps, XviD ~1500 kbps avg, 0.204 bit/pixel
Аудио: 48.0 kHz, AC3 Dolby Digital, 2/0 (L,R) ch, ~ 192 kbps
Раздача ведётся путём добавления новых серий, при каждом добавлении создаётся новый торрент. Чтобы начать докачку новой серии, пользователям необходимо сделать следующее:

- Остановить скачивание.
- Удалить старый торрент у себя из клиента (старые серии удалять не надо).
- Скачать новый торрент и запустить его у себя в клиенте вместо старого, при этом указать клиенту путь в старую папку куда и должно происходить скачивание новых серий.

Ваш клиент при этом должен произвести хеширование (проверку) старой папки (если не производит сам - помогите ему сделать это), и будет докачивать только те серии которых у вас ещё нет. Старые серии при этом не удаляются, а продолжают раздаваться!
Если вы уже удалили старые серии, то предотвратить повторную закачку старых серий можно, отжав галочку в соответствующих местах при запуске нового торрента. По возможности, желательно не удалять старые серии как можно дольше, чтобы релизер не столько продолжал раздавать старые серии, а смог сконцентрироваться на новых.
General
Complete name : D:\Grand.S03.WEB-DLRip.25Kuzmich\Grand.s03e01-02.WEB-DLRip.25Kuzmich.avi
Format : AVI
Format/Info : Audio Video Interleave
File size : 600 MiB
Duration : 50 min 15 s
Overall bit rate : 1 670 kb/s
Writing application : VirtualDubMod 1.5.10.3 | www.virtualdub-fr.org || (build 2550/release)
Writing library : VirtualDubMod build 2550/release

Video
ID : 0
Format : MPEG-4 Visual
Format profile : Advanced Simple@L5
Format settings : BVOP1
Format settings, BVOP : 1
Format settings, QPel : No
Format settings, GMC : No warppoints
Format settings, Matrix : Default (MPEG)
Codec ID : XVID
Codec ID/Hint : XviD
Duration : 50 min 15 s
Bit rate : 1 468 kb/s
Width : 720 pixels
Height : 400 pixels
Display aspect ratio : 16:9
Frame rate : 25.000 FPS
Color space : YUV
Chroma subsampling : 4:2:0
Bit depth : 8 bits
Scan type : Progressive
Compression mode : Lossy
Bits/(Pixel*Frame) : 0.204
Stream size : 528 MiB (88%)
Writing library : XviD 73

Audio
ID : 1
Format : AC-3
Format/Info : Audio Coding 3
Codec ID : 2000
Duration : 50 min 15 s
Bit rate mode : Constant
Bit rate : 192 kb/s
Channel(s) : 2 channels
Channel positions : Front: L R
Sampling rate : 48.0 kHz
Frame rate : 31.250 FPS (1536 SPF)
Bit depth : 16 bits
Compression mode : Lossy
Stream size : 69.0 MiB (11%)
Alignment : Split accross interleaves
Interleave, duration : 40 ms (1.00 video frame)
Interleave, preload duratio : 500 ms
Service kind : Complete Main


Трекер:  [ 19-Фев-2020 00:42 ]

  

Скачать .torrent

Размер .torrent файла 12 KB


Размер: 2.34 GB
Хэш (hash) релиза: aa7aa3ff6f863f838f98f1cd939b4224c1080c6e
Подписка на обновления:

Еще никто не оставлял запись к записи скачать торрент Гранд Сезон: 3 . Будь первым!

!Обратная связь