Скачать через торрент Гранд Сезон: 3 Фильм бесплатно в хорошем качестве torrent

Скачивайте на UnionPeer.org фильмы через торрент без регистрации. Новинки кино в хорошем качестве через торрент. На UnionPeer.org можно скачать через торрент фильмы 2014 и 2015 годов. Самые новые фильмы.

Скачать торрент Гранд Сезон: 3 бесплатно через .torrent фильм мультфильм сериал

Статистика раздачи
Размер:  9.16 GB   |    Зарегистрирован:  9 месяцев   |    .torrent скачан:  10 раз   |   
Раздают:  1  
 

Скачать Гранд / Сезон: 3 / Серии: 1-8 из ?? (Дмитрий Грибанов) [2019, комедия, WEBRip 1080p] через torrent

 
 
Автор Сообщение

Galfimbul ghost

avatar Galfimbul ghost


Гранд - 3

Год выпуска: 2019
Производство: Yellow, Black and White
Жанр: комедия
Продолжительность: ~00:25:00 серия
Субтитры: нет

Режиссёр: Дмитрий Грибанов

В ролях: Мила Сивацкая, Александр Лыков, Александра Кузенкина, Владислав Ветров, Наталья Щукина, Константин Белошапка, Александра Урсуляк, Елизавета Кононова, Александр Соколовский, Игорь Хрипунов, Николай Шрайбер, Марина Кондратьева, Дмитрий Фрид, Валерия Шкирандо, Алёна Коломина
Описание: Лев Глебович открывает новый загородный отель «Гранд» и предлагает Ксении Завгородней должность управляющей. Новое место, новый персонал и новые интриги. Бывшей горничной предстоит заслужить авторитет в коллективе и справиться с катастрофой по имени Рита — дочерью Льва Глебовича.

Реклама: Нет.

Кинопоиск
Sample

Качество: WEBRip 1080p - Getty
Формат: MKV
Видео кодек: H.264
Аудио кодек: AC3
Видео: MPEG4 AVC Video, H264, 16:9, 1920x1080, 23.976 fps, ~6400 kbps, 0.130 bit/pixel
Аудио: AC3 Dolby Digital, 48.0 kHz, 2/0 (L,R) ch, 192 kbps
Раздача ведётся путём добавления новых серий, при каждом добавлении создаётся новый торрент. Чтобы начать докачку новой серии, пользователям необходимо сделать следующее:

- Остановить скачивание.
- Удалить старый торрент у себя из клиента (старые серии удалять не надо).
- Скачать новый торрент и запустить его у себя в клиенте вместо старого, при этом указать клиенту путь в старую папку куда и должно происходить скачивание новых серий.

Ваш клиент при этом должен произвести хеширование (проверку) старой папки (если не производит сам - помогите ему сделать это), и будет докачивать только те серии которых у вас ещё нет. Старые серии при этом не удаляются, а продолжают раздаваться!
Если вы уже удалили старые серии, то предотвратить повторную закачку старых серий можно, отжав галочку в соответствующих местах при запуске нового торрента. По возможности, желательно не удалять старые серии как можно дольше, чтобы релизер не столько продолжал раздавать старые серии, а смог сконцентрироваться на новых.
General
Unique ID : 185182969751280350448215545600498551560 (0x8B50F1526464E010B086A26D245D4B08)
Complete name : D:\Grand.s03.2019.WEB-DL.(1080p).Getty\Grand.s03e01-02.2019.WEB-DL.(1080p).Getty.mkv
Format : Matroska
Format version : Version 4 / Version 2
File size : 2.34 GiB
Duration : 50 min 23 s
Overall bit rate : 6 641 kb/s
Movie name : Grand.s03e01-02.2019.WEB-DL.(1080p).Getty
Encoded date : UTC 2019-12-31 20:30:42
Writing application : mkvmerge v7.8.0 (''River Man'') 32bit built on Mar 27 2015 16:18:02
Writing library : libebml v1.3.1 + libmatroska v1.4.2

Video
ID : 1
Format : AVC
Format/Info : Advanced Video Codec
Format profile : High@L4
Format settings : CABAC / 4 Ref Frames
Format settings, CABAC : Yes
Format settings, ReFrames : 4 frames
Codec ID : V_MPEG4/ISO/AVC
Duration : 50 min 23 s
Bit rate : 6 447 kb/s
Width : 1 920 pixels
Height : 1 080 pixels
Display aspect ratio : 16:9
Frame rate mode : Constant
Frame rate : 23.976 (24000/1001) FPS
Color space : YUV
Chroma subsampling : 4:2:0
Bit depth : 8 bits
Scan type : Progressive
Bits/(Pixel*Frame) : 0.130
Stream size : 2.27 GiB (97%)
Default : Yes
Forced : No

Audio
ID : 2
Format : AC-3
Format/Info : Audio Coding 3
Codec ID : A_AC3
Duration : 50 min 23 s
Bit rate mode : Constant
Bit rate : 192 kb/s
Channel(s) : 2 channels
Channel positions : Front: L R
Sampling rate : 48.0 kHz
Frame rate : 31.250 FPS (1536 SPF)
Bit depth : 16 bits
Compression mode : Lossy
Stream size : 69.2 MiB (3%)
Service kind : Complete Main
Default : Yes
Forced : No


Внимание! AdBlock блокирует показ скриншотов, все вопросы к разработчикам )))
Трекер:  [ 19-Фев-2020 00:42 ]

  

Скачать .torrent

Размер .torrent файла 46 KB


Размер: 9.16 GB
Хэш (hash) релиза: 6d3ab5d212b73e1392639fc6acfa79f3a37879e2
Подписка на обновления:

Еще никто не оставлял запись к записи скачать торрент Гранд Сезон: 3 . Будь первым!

!Обратная связь