Скачать через торрент Большие надежды Серии: 1-8 из 8 Фильм бесплатно в хорошем качестве torrent

Скачивайте на UnionPeer.org фильмы через торрент без регистрации. Новинки кино в хорошем качестве через торрент. На UnionPeer.org можно скачать через торрент фильмы 2014 и 2015 годов. Самые новые фильмы.

Скачать торрент Большие надежды Серии: 1-8 из 8 бесплатно через .torrent фильм мультфильм сериал

Статистика раздачи
Размер:  5.24 GB   |    Зарегистрирован:  1 месяц 20 дней   |    .torrent скачан:  7 раз   |   
Раздают:  1  
 

Скачать Большие надежды / Серии: 1-8 из 8 (Юлия Краснова) [2020, мелодрама, WEBRip] через torrent

 
загрузка...
 
Автор Сообщение

Galfimbul ghost

avatar Galfimbul ghost


Большие надежды

Год выпуска: 2020
Производство: Киностудия Маркес
Жанр: мелодрама
Продолжительность: ~00:52:00 серия
Субтитры: нет

Режиссёр: Юлия Краснова

В ролях: Татьяна Бабенкова, Анфиса Черных, Елена Яковлева, Евгений Антропов, Леонид Громов, Алексей Демидов, Василий Симонов, Ян Цапник, Кирилл Жандаров, Даниил Белых, Артем Осипов, Кирилл Сафонов, Олег Гаас, Евгений Сахаров

Описание: История любви и невосполнимых потерь на фоне жизни страны в последние тридцать лет. Юные Эра и Зина, окрыленные большими надеждами, наперекор советам родителей отправляются в город за своей мечтой. Они многое пройдут рука об руку, смогут по-настоящему подружиться, похоронят наивность и иллюзии, переживут взлеты и падения. И поймут, что главное в жизни – сохранить любовь, веру в людей и надежду на лучшее, несмотря ни на что.

Реклама: Нет.

Кино-театр

Sample

Качество: WEBRip - Files-x
Формат: AVI
Видео кодек: XviD
Аудио кодек: AC3
Видео: 720x400 (1.80:1), 25 fps, XviD ~1600 kbps avg, 0.222 bit/pixel
Аудио: 48.0 kHz, AC3 Dolby Digital, 2/0 (L,R) ch, ~ 192 kbps
Раздача ведётся путём добавления новых серий, при каждом добавлении создаётся новый торрент. Чтобы начать докачку новой серии, пользователям необходимо сделать следующее:

- Остановить скачивание.
- Удалить старый торрент у себя из клиента (старые серии удалять не надо).
- Скачать новый торрент и запустить его у себя в клиенте вместо старого, при этом указать клиенту путь в старую папку куда и должно происходить скачивание новых серий.

Ваш клиент при этом должен произвести хеширование (проверку) старой папки (если не производит сам - помогите ему сделать это), и будет докачивать только те серии которых у вас ещё нет. Старые серии при этом не удаляются, а продолжают раздаваться!
Если вы уже удалили старые серии, то предотвратить повторную закачку старых серий можно, отжав галочку в соответствующих местах при запуске нового торрента. По возможности, желательно не удалять старые серии как можно дольше, чтобы релизер не столько продолжал раздавать старые серии, а смог сконцентрироваться на новых.
General
Complete name : D:\Большие надежды.2020.WEB-DLRip.Files-x\01. Большие надежды.2020.WEB-DLRip.Files-x .avi
Format : AVI
Format/Info : Audio Video Interleave
File size : 671 MiB
Duration : 52 min 5 s
Overall bit rate : 1 802 kb/s
Writing application : VirtualDubMod 1.5.10.3 | www.virtualdub-fr.org || (build 2550/release)
Writing library : VirtualDubMod build 2550/release

Video
ID : 0
Format : MPEG-4 Visual
Format profile : Advanced Simple@L5
Format settings : BVOP1 / Custom Matrix
Format settings, BVOP : 1
Format settings, QPel : No
Format settings, GMC : No warppoints
Format settings, Matrix : Custom
Codec ID : XVID
Codec ID/Hint : XviD
Duration : 52 min 5 s
Bit rate : 1 600 kb/s
Width : 720 pixels
Height : 400 pixels
Display aspect ratio : 16:9
Frame rate : 25.000 FPS
Color space : YUV
Chroma subsampling : 4:2:0
Bit depth : 8 bits
Scan type : Progressive
Compression mode : Lossy
Bits/(Pixel*Frame) : 0.222
Stream size : 596 MiB (89%)
Writing library : XviD 73

Audio
ID : 1
Format : AC-3
Format/Info : Audio Coding 3
Codec ID : 2000
Duration : 52 min 5 s
Bit rate mode : Constant
Bit rate : 192 kb/s
Channel(s) : 2 channels
Channel positions : Front: L R
Sampling rate : 48.0 kHz
Frame rate : 31.250 FPS (1536 SPF)
Bit depth : 16 bits
Compression mode : Lossy
Stream size : 71.5 MiB (11%)
Alignment : Split accross interleaves
Interleave, duration : 40 ms (1.00 video frame)
Interleave, preload duratio : 500 ms
Service kind : Complete Main


Трекер:  [ 19-Фев-2020 00:42 ]

  

Скачать .torrent

Размер .torrent файла 27 KB


Размер: 5.24 GB
Хэш (hash) релиза: 704a983f95e01d611cb9818459904b143bc34fe2
Подписка на обновления:

Торренты, похожие на Большие надежды Серии: 1-8 из 8 скачать торрент

Форум Название Автор Размер S L Добавлен
Российские сериалы ·· Большие надежды / Серии: 1-8 из 8 (Юлия Краснова) [2019, мелодрама, HDTV 1080i] Galfimbul ghost 1484903392413.83 GB 0 0 1582065247

01:34

19-Фев-20

Еще никто не оставлял запись к записи скачать торрент Большие надежды Серии: 1-8 из 8 . Будь первым!

!Обратная связь