Скачать через торрент Грозовые ворота Серии: 1-4 из 4 Фильм бесплатно в хорошем качестве torrent

Скачивайте на UnionPeer.org фильмы через торрент без регистрации. Новинки кино в хорошем качестве через торрент. На UnionPeer.org можно скачать через торрент фильмы 2014 и 2015 годов. Самые новые фильмы.

Скачать торрент Грозовые ворота Серии: 1-4 из 4 бесплатно через .torrent фильм мультфильм сериал

Статистика раздачи
Размер:  11.62 GB   |    Зарегистрирован:  9 месяцев   |    .torrent скачан:  88 раз   |   
Раздают:  2  
 

Скачать Грозовые ворота / Серии: 1-4 из 4 (Андрей Малюков) [2006, Драма, военный, WEBRip 720p] через torrent

 
 
Автор Сообщение

Galfimbul ghost

avatar Galfimbul ghost


Грозовые ворота
Год выпуска: 2006
Производство: Россия
Студия: Первый канал, к/ст Вертикаль
Жанр: Драма, военный
Продолжительность: 00:52:26 + 00:48:08 + 00:48:38 + 00:50:27
Субтитры: Русские
Навигация по главам: Есть
Сценарий: Александр Буравский, Александр Тамоников, Анатолий Усов
Режиссёр: Андрей Малюков
Оператор: Владимир Спорышков
Композитор: Иван Бурляев
Художники: Владимир Душин, Александр Жирнов
Продюсеры: Константин Эрнст, Анатолий Максимов
Постановщик трюков: Валерий Деркач
В ролях: Михаил Пореченков — Валерий Егоров, майор, командир разведгруппы спецназа ГРУ, служил в ВДВ, Вячеслав Разбегаев — Мурад «Шах», бывший генерал ЧРИ, друг Егорова, Анатолий Пашинин — Александр Владимирович Доронин, старший лейтенант, командир 5 роты 74 отдельного мотострелкового полка Сухопутных войск (озвучивание: Сергей Маховиков), Андрей Краско — полковник Павел Павлович Галкин, Борис Щербаков — генерал, позывной «Терек», Иван Жидков — рядовой Константин Ветров — стрелок, Евгений Потапенко — рядовой Николай Горшков — пулемётчик, Алексей Алексеев, Михаил Ефремов — капитан Георгий Ланевский, командир взвода БМД, Даниил Страхов — старший лейтенант Панкратов — комвзвода, Елизавета Боярская — Саша
Описание: Рота старшего лейтенанта Александра Доронина, в котором служат молодые солдаты Константин Ветров и Николаи Горшков, откомандирована на северный Кавказ командир полка полковник Галкин поручает Доронину оборону перевала "грозовые ворота" к роте Доронина прикомандировывают группу спецназа ГРУ под командованием майора Егорова у которого несколько лет назад от рук террористов погибли жена и сын. Вскоре по прибытии на перевал. Егоров знакомит Доронина со своим доверенным лицом Шахом. Бывшим генералом. У Шаха имеется достоверная информация, что к перевалу стягиваются крупные силы боевиков они готовятся нанести роте сокрушительный удар…

Качество: WEBRip 720p
Формат: MKV
Видео: MPEG-4 AVC, 1280x720 (16:9), 25,000 fps, ~8583 Kbps
Аудио: AC3, 2 ch, 192 Кбит/сек, CBR, 48,0 КГц


Рабочее название фильма было «6 рота». Но так как в это же время шли съёмки фильма «9 рота» Фёдора Бондарчука, название фильма пришлось сменить[3].
Практически одновременно вышел фильм «Прорыв» по тому же сюжету.

< Артиллерия:
ЗУ-23-2 — спаренная зенитная установка калибра 23 мм
Д-30 — 122-мм гаубица
Авиация:
Ми-24 — транспортно-боевой вертолёт
Ил-76 — Военно-транспортный самолёт Ил-76
Боевая техника:
Боевые машины десанта
БМД-1
БМД-2
Военные автомобили:
Урал-4320х0
УАЗ-469-3151
ГАЗ-66

Съёмки сцен на Кавказе фильма «Грозовые ворота» на границе Абинского района и города-курорта Геленджик Краснодарского края. Съёмочная группа работала на юго-восточных склонах горы Абин хребта Коцехур в районе долины реки Жане, в Адербиевке, Прасковеевке, посёлках Светлом и Тёмная Щель, где оставила декорацию-замок. В настоящее время данное место стало достопримечательностью, которую посещают туристы.
Остальные сцены снимались в Пскове и на базе отдыха «Кривск» ГУ ЦБ по Псковской области в посёлке Кривск, Псковская область. В массовых сценах принимали участие жители Пскова.


General
Unique ID : 175951112317232992904380051612608435257 (0x845EF39BCBA35C18C708476A8AF71439)
Complete name : D:\Грозовые ворота_WEBRip 720p\Ворота_1.mkv
Format : Matroska
Format version : Version 4
File size : 3.09 GiB
Duration : 52 min 26 s
Overall bit rate : 8 441 kb/s
Movie name : Грозовые ворота_WEBRip 720p
Encoded date : UTC 2020-02-18 14:33:15
Writing application : mkvmerge v43.0.0 (''The Quartermaster'') 64-bit
Writing library : libebml v1.3.10 + libmatroska v1.5.2

Video
ID : 1
Format : AVC
Format/Info : Advanced Video Codec
Format profile : High@L4.1
Format settings : CABAC / 9 Ref Frames
Format settings, CABAC : Yes
Format settings, Reference : 9 frames
Codec ID : V_MPEG4/ISO/AVC
Duration : 52 min 26 s
Bit rate : 8 247 kb/s
Width : 1 280 pixels
Height : 720 pixels
Display aspect ratio : 16:9
Frame rate mode : Constant
Frame rate : 25.000 FPS
Color space : YUV
Chroma subsampling : 4:2:0
Bit depth : 8 bits
Scan type : Progressive
Bits/(Pixel*Frame) : 0.358
Stream size : 3.02 GiB (98%)
Writing library : x264 core 152 r2851kMod ba24899
Encoding settings : cabac=1 / ref=9 / deblock=1:-2:-1 / analyse=0x3:0x113 / me=umh / subme=10 / psy=1 / fade_compensate=0.00 / psy_rd=1.05:0.10 / mixed_ref=1 / me_range=40 / chroma_me=1 / trellis=2 / 8x8dct=1 / cqm=0 / deadzone=21,11 / fast_pskip=1 / chroma_qp_offset=-3 / threads=12 / lookahead_threads=2 / sliced_threads=0 / nr=0 / decimate=1 / interlaced=0 / bluray_compat=0 / constrained_intra=0 / bframes=9 / b_pyramid=2 / b_adapt=2 / b_bias=0 / direct=1 / weightb=1 / open_gop=0 / weightp=2 / keyint=250 / keyint_min=25 / scenecut=40 / intra_refresh=0 / rc=crf / mbtree=0 / crf=17.7000 / qcomp=0.63 / qpmin=0 / qpmax=39 / qpstep=4 / ip_ratio=1.40 / pb_ratio=1.30 / aq=2:1.00
Language : English
Default : Yes
Forced : No
Color range : Limited
Color primaries : BT.709
Transfer characteristics : BT.709
Matrix coefficients : BT.709

Audio
ID : 2
Format : AC-3
Format/Info : Audio Coding 3
Commercial name : Dolby Digital
Codec ID : A_AC3
Duration : 52 min 26 s
Bit rate mode : Constant
Bit rate : 192 kb/s
Channel(s) : 2 channels
Channel layout : L R
Sampling rate : 48.0 kHz
Frame rate : 31.250 FPS (1536 SPF)
Compression mode : Lossy
Stream size : 72.0 MiB (2%)
Language : Russian
Service kind : Complete Main
Default : Yes
Forced : No

Text
ID : 3
Format : UTF-8
Codec ID : S_TEXT/UTF8
Codec ID/Info : UTF-8 Plain Text
Duration : 50 min 15 s
Bit rate : 89 b/s
Count of elements : 653
Stream size : 32.8 KiB (0%)
Language : Russian
Default : No
Forced : No

Menu
00:00:00.000 : en:Chapter 1
00:08:58.840 : en:Chapter 2
00:16:29.560 : en:Chapter 3
00:23:55.840 : en:Chapter 4
00:29:22.480 : en:Chapter 5
00:41:35.080 : en:Chapter 6
00:52:26.000 : en:Chapter 7
General
Unique ID : 251181081833430752945674237112699234840 (0xBCF7B7796EA56C0435F358B360F6AA18)
Complete name : D:\Грозовые ворота_WEBRip 720p\Ворота_2.mkv
Format : Matroska
Format version : Version 4
File size : 2.71 GiB
Duration : 48 min 8 s
Overall bit rate : 8 053 kb/s
Movie name : Грозовые ворота_WEBRip 720p
Encoded date : UTC 2020-02-18 14:36:46
Writing application : mkvmerge v43.0.0 (''The Quartermaster'') 64-bit
Writing library : libebml v1.3.10 + libmatroska v1.5.2

Video
ID : 1
Format : AVC
Format/Info : Advanced Video Codec
Format profile : High@L4.1
Format settings : CABAC / 9 Ref Frames
Format settings, CABAC : Yes
Format settings, Reference : 9 frames
Codec ID : V_MPEG4/ISO/AVC
Duration : 48 min 8 s
Bit rate : 7 859 kb/s
Width : 1 280 pixels
Height : 720 pixels
Display aspect ratio : 16:9
Frame rate mode : Constant
Frame rate : 25.000 FPS
Color space : YUV
Chroma subsampling : 4:2:0
Bit depth : 8 bits
Scan type : Progressive
Bits/(Pixel*Frame) : 0.341
Stream size : 2.64 GiB (98%)
Writing library : x264 core 152 r2851kMod ba24899
Encoding settings : cabac=1 / ref=9 / deblock=1:-2:-1 / analyse=0x3:0x113 / me=umh / subme=10 / psy=1 / fade_compensate=0.00 / psy_rd=1.05:0.10 / mixed_ref=1 / me_range=40 / chroma_me=1 / trellis=2 / 8x8dct=1 / cqm=0 / deadzone=21,11 / fast_pskip=1 / chroma_qp_offset=-3 / threads=12 / lookahead_threads=2 / sliced_threads=0 / nr=0 / decimate=1 / interlaced=0 / bluray_compat=0 / constrained_intra=0 / bframes=9 / b_pyramid=2 / b_adapt=2 / b_bias=0 / direct=1 / weightb=1 / open_gop=0 / weightp=2 / keyint=250 / keyint_min=25 / scenecut=40 / intra_refresh=0 / rc=crf / mbtree=0 / crf=17.7000 / qcomp=0.63 / qpmin=0 / qpmax=39 / qpstep=4 / ip_ratio=1.40 / pb_ratio=1.30 / aq=2:1.00
Language : English
Default : Yes
Forced : No
Color range : Limited
Color primaries : BT.709
Transfer characteristics : BT.709
Matrix coefficients : BT.709

Audio
ID : 2
Format : AC-3
Format/Info : Audio Coding 3
Commercial name : Dolby Digital
Codec ID : A_AC3
Duration : 48 min 8 s
Bit rate mode : Constant
Bit rate : 192 kb/s
Channel(s) : 2 channels
Channel layout : L R
Sampling rate : 48.0 kHz
Frame rate : 31.250 FPS (1536 SPF)
Compression mode : Lossy
Stream size : 66.1 MiB (2%)
Language : Russian
Service kind : Complete Main
Default : Yes
Forced : No

Text
ID : 3
Format : UTF-8
Codec ID : S_TEXT/UTF8
Codec ID/Info : UTF-8 Plain Text
Duration : 47 min 49 s
Bit rate : 102 b/s
Count of elements : 621
Stream size : 36.1 KiB (0%)
Language : Russian
Default : No
Forced : No

Menu
00:00:00.000 : en:Chapter 1
00:12:54.640 : en:Chapter 2
00:18:29.560 : en:Chapter 3
00:25:17.560 : en:Chapter 4
00:36:38.560 : en:Chapter 5
00:45:07.840 : en:Chapter 6
00:46:42.280 : en:Chapter 7
00:48:07.720 : en:Chapter 8
General
Unique ID : 31817531950480513027459672013099830183 (0x17EFD570E6D4000B757AFE08042D0BA7)
Complete name : D:\Грозовые ворота_WEBRip 720p\Ворота_3.mkv
Format : Matroska
Format version : Version 4
File size : 2.72 GiB
Duration : 48 min 38 s
Overall bit rate : 8 018 kb/s
Movie name : Грозовые ворота_WEBRip 720p
Encoded date : UTC 2020-02-18 14:39:56
Writing application : mkvmerge v43.0.0 (''The Quartermaster'') 64-bit
Writing library : libebml v1.3.10 + libmatroska v1.5.2

Video
ID : 1
Format : AVC
Format/Info : Advanced Video Codec
Format profile : High@L4.1
Format settings : CABAC / 9 Ref Frames
Format settings, CABAC : Yes
Format settings, Reference : 9 frames
Codec ID : V_MPEG4/ISO/AVC
Duration : 48 min 38 s
Bit rate : 7 824 kb/s
Width : 1 280 pixels
Height : 720 pixels
Display aspect ratio : 16:9
Frame rate mode : Constant
Frame rate : 25.000 FPS
Color space : YUV
Chroma subsampling : 4:2:0
Bit depth : 8 bits
Scan type : Progressive
Bits/(Pixel*Frame) : 0.340
Stream size : 2.66 GiB (98%)
Writing library : x264 core 152 r2851kMod ba24899
Encoding settings : cabac=1 / ref=9 / deblock=1:-2:-1 / analyse=0x3:0x113 / me=umh / subme=10 / psy=1 / fade_compensate=0.00 / psy_rd=1.05:0.10 / mixed_ref=1 / me_range=40 / chroma_me=1 / trellis=2 / 8x8dct=1 / cqm=0 / deadzone=21,11 / fast_pskip=1 / chroma_qp_offset=-3 / threads=12 / lookahead_threads=2 / sliced_threads=0 / nr=0 / decimate=1 / interlaced=0 / bluray_compat=0 / constrained_intra=0 / bframes=9 / b_pyramid=2 / b_adapt=2 / b_bias=0 / direct=1 / weightb=1 / open_gop=0 / weightp=2 / keyint=250 / keyint_min=25 / scenecut=40 / intra_refresh=0 / rc=crf / mbtree=0 / crf=17.7000 / qcomp=0.63 / qpmin=0 / qpmax=39 / qpstep=4 / ip_ratio=1.40 / pb_ratio=1.30 / aq=2:1.00
Language : English
Default : Yes
Forced : No
Color range : Limited
Color primaries : BT.709
Transfer characteristics : BT.709
Matrix coefficients : BT.709

Audio
ID : 2
Format : AC-3
Format/Info : Audio Coding 3
Commercial name : Dolby Digital
Codec ID : A_AC3
Duration : 48 min 38 s
Bit rate mode : Constant
Bit rate : 192 kb/s
Channel(s) : 2 channels
Channel layout : L R
Sampling rate : 48.0 kHz
Frame rate : 31.250 FPS (1536 SPF)
Compression mode : Lossy
Stream size : 66.8 MiB (2%)
Language : Russian
Service kind : Complete Main
Default : Yes
Forced : No

Text
ID : 3
Format : UTF-8
Codec ID : S_TEXT/UTF8
Codec ID/Info : UTF-8 Plain Text
Duration : 48 min 7 s
Bit rate : 118 b/s
Count of elements : 717
Stream size : 41.7 KiB (0%)
Language : Russian
Default : No
Forced : No

Menu
00:00:00.000 : en:Chapter 1
00:08:34.120 : en:Chapter 2
00:15:08.560 : en:Chapter 3
00:24:37.240 : en:Chapter 4
00:30:52.480 : en:Chapter 5
00:42:10.000 : en:Chapter 6
00:48:37.960 : en:Chapter 7
General
Unique ID : 282733682584867192863049207062963432430 (0xD4B486CC7C63BCD497EE56A2697C2BEE)
Complete name : D:\Грозовые ворота_WEBRip 720p\Ворота_4.mkv
Format : Matroska
Format version : Version 4
File size : 3.09 GiB
Duration : 50 min 27 s
Overall bit rate : 8 777 kb/s
Movie name : Грозовые ворота_WEBRip 720p
Encoded date : UTC 2020-02-18 14:43:47
Writing application : mkvmerge v43.0.0 (''The Quartermaster'') 64-bit
Writing library : libebml v1.3.10 + libmatroska v1.5.2

Video
ID : 1
Format : AVC
Format/Info : Advanced Video Codec
Format profile : High@L4.1
Format settings : CABAC / 9 Ref Frames
Format settings, CABAC : Yes
Format settings, Reference : 9 frames
Codec ID : V_MPEG4/ISO/AVC
Duration : 50 min 27 s
Bit rate : 8 583 kb/s
Width : 1 280 pixels
Height : 720 pixels
Display aspect ratio : 16:9
Frame rate mode : Constant
Frame rate : 25.000 FPS
Color space : YUV
Chroma subsampling : 4:2:0
Bit depth : 8 bits
Scan type : Progressive
Bits/(Pixel*Frame) : 0.373
Stream size : 3.02 GiB (98%)
Writing library : x264 core 152 r2851kMod ba24899
Encoding settings : cabac=1 / ref=9 / deblock=1:-2:-1 / analyse=0x3:0x113 / me=umh / subme=10 / psy=1 / fade_compensate=0.00 / psy_rd=1.05:0.10 / mixed_ref=1 / me_range=40 / chroma_me=1 / trellis=2 / 8x8dct=1 / cqm=0 / deadzone=21,11 / fast_pskip=1 / chroma_qp_offset=-3 / threads=12 / lookahead_threads=2 / sliced_threads=0 / nr=0 / decimate=1 / interlaced=0 / bluray_compat=0 / constrained_intra=0 / bframes=9 / b_pyramid=2 / b_adapt=2 / b_bias=0 / direct=1 / weightb=1 / open_gop=0 / weightp=2 / keyint=250 / keyint_min=25 / scenecut=40 / intra_refresh=0 / rc=crf / mbtree=0 / crf=17.7000 / qcomp=0.63 / qpmin=0 / qpmax=39 / qpstep=4 / ip_ratio=1.40 / pb_ratio=1.30 / aq=2:1.00
Language : English
Default : Yes
Forced : No
Color range : Limited
Color primaries : BT.709
Transfer characteristics : BT.709
Matrix coefficients : BT.709

Audio
ID : 2
Format : AC-3
Format/Info : Audio Coding 3
Commercial name : Dolby Digital
Codec ID : A_AC3
Duration : 50 min 27 s
Bit rate mode : Constant
Bit rate : 192 kb/s
Channel(s) : 2 channels
Channel layout : L R
Sampling rate : 48.0 kHz
Frame rate : 31.250 FPS (1536 SPF)
Compression mode : Lossy
Stream size : 69.3 MiB (2%)
Language : Russian
Service kind : Complete Main
Default : Yes
Forced : No

Text
ID : 3
Format : UTF-8
Codec ID : S_TEXT/UTF8
Codec ID/Info : UTF-8 Plain Text
Duration : 48 min 59 s
Bit rate : 67 b/s
Count of elements : 486
Stream size : 24.2 KiB (0%)
Language : Russian
Default : No
Forced : No

Menu
00:00:00.000 : en:Chapter 1
00:08:44.080 : en:Chapter 2
00:15:20.440 : en:Chapter 3
00:26:18.040 : en:Chapter 4
00:34:29.320 : en:Chapter 5
00:42:04.240 : en:Chapter 6
00:50:27.040 : en:Chapter 7



Смогу ли я запустить AVC фильм на своём компьютере?
Сампл из раздачи не воспроизводится/тормозит или отсутствует звук/изображение. Что делать?
Что такое H.264/AVC и зачем он нужен?
Что за дурацкий формат .MKV?
Почему MKV? Чем AVI хуже?
Не могу переключить/включить/выключить аудио/видео дорожки и/или субтитры. Что делать?
Как сделать так, чтобы по умолчанию при просмотре MKV файлов нужные/ненужные субтитры были включены/выключены, и/или сразу проигрывалась дорожка на нужном мне языке?
Будут ли фильмы в таком формате проигрываться на бытовых плеерах без компьютера?
Проигрываю фильм, а картинка очень сильно отличается от скринов/бледная/перенасыщенная. Что не так?
Можно ли сконвертировать AVC в DVD?
Почему в характеристиках видеопотока указано два разрешения и что такое анаморфное разрешение?
Можно ли вывести многоканальный FLAC/AAC-звук на внешний ресивер?
У меня 2-канальная акустика/стереонаушники. При просмотре видео почти не слышно/совсем не слышно речь/разговоры, играют только фоновые звуки. Что делать?
Всё прочитал(-а), решения своей проблемы не нашёл(-шла)/не смог(-ла) разобраться. Что делать?


Внимание! AdBlock блокирует показ скриншотов, все вопросы к разработчикам )))
Трекер:  [ 19-Фев-2020 07:42 ]

  

Скачать .torrent

Размер .torrent файла 58 KB


Размер: 11.62 GB
Хэш (hash) релиза: 4aa76ba3e03e668370cb7ccb2c21e1370ab19411
Подписка на обновления:

Торренты, похожие на Грозовые ворота Серии: 1-4 из 4 скачать торрент

Форум Название Автор Размер S L Добавлен
Российские сериалы ·· Грозовые ворота / Серии: 1-4 из 4 ( Андрей Малюков) [2006, боевик, военный фильм, WEBRip] Galfimbul ghost 28212654082.63 GB 0 0 1470489092

16:11

6-Авг-16

Российские сериалы ·· Грозовые ворота (Серии: 1-4 из 4) (Андрей Малюков) [2006, боевик, военный фильм, драма, DVD5] sebladec 44430479364.14 GB 0 0 1293387425

21:17

26-Дек-10

Российские сериалы ·· Грозовые ворота (серии 1-4 из 4) (Андрей Малюков) [2006 г., военный, драма, DVDRip] sebladec 14687252481.37 GB 0 0 1293387062

21:11

26-Дек-10

Еще никто не оставлял запись к записи скачать торрент Грозовые ворота Серии: 1-4 из 4 . Будь первым!

!Обратная связь