Скачать через торрент Проект Синяя книга Project Blue Book Фильм бесплатно в хорошем качестве torrent

Скачивайте на UnionPeer.org фильмы через торрент без регистрации. Новинки кино в хорошем качестве через торрент. На UnionPeer.org можно скачать через торрент фильмы 2014 и 2015 годов. Самые новые фильмы.

Скачать торрент Проект Синяя книга Project Blue Book бесплатно через .torrent фильм мультфильм сериал

Статистика раздачи
Размер:  2.47 GB   |    Зарегистрирован:  1 год 11 месяцев   |    .torrent скачан:  15 раз   |   
Раздают:  1  
   
 
Автор Сообщение

Galfimbul

avatar Galfimbul


Проект Синяя книга | Project Blue Book
Год выпуска: 2020
Страна: США, Канада
Жанр: фантастика, триллер, драма, детектив
Продолжительность: ~ 00:46:00

Перевод: Профессиональный (многоголосый закадровый)
LostFilm


Режиссёр: Норма Бэйли, Томас Картер, Алекс Грейвз

В ролях: Эйдан Гиллен, Майкл Маларки, Лаура Меннелл, Ксения Соло, Майкл Харни, Нил МакДонаф, Роберт Джон Бёрк, Джилл Моррисон, Хезер Дорксен, Франческа Бьянчи

Описание: 1950-е годы. Астроном Дж. Аллен Хинек и капитан ВВС США Майкл Квинн разбираются со свидетельствами появления НЛО. В ходе расследования они натыкаются на правительственный заговор, скрывающий от населения правду.



Качество: WEB-DLRip
Формат: AVI
Видео: XviD, 704x352, 23,976 fps, ~ 1600 kbps
Аудио 1: 48 kHz, AC3 2 ch, ~ 192 kbps|LostFilm|
Аудио 2: 48 kHz, AC3 2 ch, ~ 192 kbps
Субтитры: Английские (SDH)

Реклама: Отсутствует


Работа со звуком:
kogesan@RGzsRutracker


Format : AVIFormat/Info : Audio Video InterleaveFile size : 651 MiBDuration : 45mn 32sOverall bit rate : 1 998 KbpsMovie name : Проект "Синяя книга" 2х01: Инцидент в Розуэлле, часть 1Director : Бёдвар (WEB-DLRip)Writing application : VirtualDubModRus 1.5.10.2 (build 2542/release)Comment : 25.01.2020

VideoID : 0Format : MPEG-4 VisualFormat profile : Advanced Simple@L5Format settings, BVOP : 1Format settings, QPel : NoFormat settings, GMC : No warppointsFormat settings, Matrix : Default (MPEG)Codec ID : XVIDCodec ID/Hint : XviDDuration : 45mn 32sBit rate : 1 600 KbpsWidth : 704 pixelsHeight : 352 pixelsDisplay aspect ratio : 2.000Frame rate : 23.976 (24000/1001) fpsColor space : YUVChroma subsampling : 4:2:0Bit depth : 8 bitsScan type : ProgressiveCompression mode : LossyBits/(Pixel*Frame) : 0.269Stream size : 521 MiB (80%)Writing library : XviD 67

Audio #1ID : 1Format : AC-3Format/Info : Audio Coding 3Mode extension : CM (complete main)Format settings, Endianness : BigCodec ID : 2000Duration : 45mn 32sBit rate mode : ConstantBit rate : 192 KbpsChannel(s) : 2 channelsChannel positions : Front: L RSampling rate : 48.0 KHzFrame rate : 31.250 fps (1536 spf)Compression mode : LossyStream size : 62.5 MiB (10%)Alignment : Split accross interleavesInterleave, duration : 42 ms (1.00 video frame)Interleave, preload duratio : 500 ms

Audio #2ID : 2Format : AC-3Format/Info : Audio Coding 3Mode extension : CM (complete main)Format settings, Endianness : BigCodec ID : 2000Duration : 45mn 32sBit rate mode : ConstantBit rate : 192 KbpsChannel(s) : 2 channelsChannel positions : Front: L RSampling rate : 48.0 KHzFrame rate : 31.250 fps (1536 spf)Compression mode : LossyStream size : 62.5 MiB (10%)Alignment : Split accross interleavesInterleave, duration : 42 ms (1.00 video frame)Interleave, preload duratio : 500 ms
Внимание! Раздача ведётся путём добавления новых серий; при каждом добавлении создаётся новый торрент. Чтобы начать докачку новой серии,пользователям необходимо сделать следующее:
(1) остановить скачивание,
(2) удалить старый торрент у себя из клиента (старые серии удалять не надо),
(3) скачать новый торрент и запустить его у себя в клиенте вместо старого, при этом указать клиенту путь в старую папку куда и должнопроисходить скачивание новых серий.

Ваш клиент при этом должен произвести хеширование (проверку) старой папки (если не производит сам - помогите ему сделать это), и будет докачивать только те серии
которых у вас ещё нет. Старые серии при этом не удаляются, а продолжают раздаваться!

Eсли вы уже удалили старые серии, то предотвратить повторную закачку старых серий можно, отжав галочку в соответствующих местах при запуске нового торрента.

По возможности, желательно не удалять старые серии как можно дольше чтобы релизёр не столько продолжал раздавать старые серии, а смог сконцентрироваться на новых.


Внимание! AdBlock блокирует показ скриншотов, все вопросы к разработчикам )))
Трекер:  [ 19-Фев-2020 09:48 ]

  

Скачать .torrent

Размер .torrent файла 13 KB


Размер: 2.47 GB
Хэш (hash) релиза: 56b7a318428fb702a70a9388af36d47b2954d176
Подписка на обновления:

Торренты, похожие на Проект Синяя книга Project Blue Book скачать торрент

Форум Название Автор Размер S L Добавлен
Зарубежные сериалы ·· Проект Синяя книга / Project Blue Book / Сезон: 2 / Серии: 1-4 из 10 (Норма Бэйли) [2020, США, Канада, фантастика, триллер, драма, детектив, WEB-DL 720p] MVO (AlexFilm) + Original + Sub (Eng) Galfimbul 52061418074.85 GB 0 0 1582097957

10:39

19-Фев-20

Зарубежные сериалы ·· Проект Синяя книга / Project Blue Book / Сезон: 2 / Серии: 1-4 из 10 (Норма Бэйли) [2020, США, Канада, фантастика, триллер, драма, детектив, WEB-DL 720p] MVO (Lostfilm) + Original + Sub (Eng) Galfimbul 52999793654.94 GB 0 0 1582097737

10:35

19-Фев-20

Зарубежные сериалы ·· Проект Синяя книга / Project Blue Book / Сезон: 2 / Серии: 1-4 из 10 (Норма Бэйли) [2020, США, Канада, фантастика, триллер, драма, детектив, WEB-DL 720p] MVO (NewStudio) + Original + Sub (Eng) Galfimbul 52485823464.89 GB 1 1 1582097302

10:28

19-Фев-20

Зарубежные сериалы ·· Проект Синяя книга / Проект засекречен / Project Blue Book / Сезон: 2 / Серии: 1-4 из 10 (Роберт Стромберг, Пит Трэвис, Норма Бэйли) [2020, США, Канада, фантастика, триллер, драма, детектив, WEB-DLRip] MVO (TVShows) Galfimbul 29120430082.71 GB 0 0 1582095126

09:52

19-Фев-20

Еще никто не оставлял запись к записи скачать торрент Проект Синяя книга Project Blue Book . Будь первым!

!Обратная связь