Скачать через торрент Блудный сын Prodigal Son Фильм бесплатно в хорошем качестве torrent

Скачивайте на UnionPeer.org фильмы через торрент без регистрации. Новинки кино в хорошем качестве через торрент. На UnionPeer.org можно скачать через торрент фильмы 2014 и 2015 годов. Самые новые фильмы.

Скачать торрент Блудный сын Prodigal Son бесплатно через .torrent фильм мультфильм сериал

Статистика раздачи
Размер:  8.59 GB   |    Зарегистрирован:  5 месяцев 20 дней   |    .torrent скачан:  27 раз   |   
Раздают:  1  
 

Скачать Блудный сын / Prodigal Son / Сезон: 1 / Серии: 1-14 из 22 (Ли Толанд Кригер) [2019, США, драма, криминал., WEB-DLRip] MVO (LostFilm) + Original + Sub (Rus, Eng) через torrent

 
Sprinthost
загрузка...
 
Автор Сообщение

Galfimbul ghost

avatar Galfimbul ghost


Блудный сын / Prodigal Son
Год выпуска: 2019
Страна: США
Жанр: драма, криминал
Продолжительность: ~ 00:46:00

Перевод: Профессиональный (многоголосый закадровый)
LostFilm


Режиссёр: Ли Толанд Кригер

В ролях: Том Пэйн, Лу Даймонд Филлипс, Холстон Сейдж, Аврора Перрино, Фрэнк Хартс, , Кейко Аджена, Беллами Янг, Майкл Шин, Эсау Притчетт, Чарлэйн Вудард

Описание: Криминальный психолог Малкольм Брайт лучше всех разбирается в поведении маньяков и составляет на них досье. Как так получилось? Дело в том, что его родной отец — серийный убийца по кличке Хирург. Малкольму предстоит консультироваться с папой по поводу новых дел и параллельно самому не сойти с ума.



Качество: WEB-DLRip
Формат: AVI
Видео: XviD, 704x352, 23,976 fps, ~ 1600 kbps
Аудио 1: 48 kHz, AC3 2 ch, ~ 192 kbps|LostFilm|
Аудио 2: 48 kHz, AC3 2 ch, ~ 192 kbps
Субтитры: Русские (FOCS), английские (SDH)

Реклама: Отсутствует


Работа со звуком:
lipovan


Format : AVIFormat/Info : Audio Video InterleaveFile size : 651 MiBDuration : 45mn 34sOverall bit rate : 1 998 KbpsMovie name : Блудный сын 1х01: ПилотDirector : Бёдвар (WEB-DLRip)Writing application : VirtualDubModRus 1.5.10.2 (build 2542/release)Comment : 27.09.2019

VideoID : 0Format : MPEG-4 VisualFormat profile : Advanced Simple@L5Format settings, BVOP : 1Format settings, QPel : NoFormat settings, GMC : No warppointsFormat settings, Matrix : Default (MPEG)Codec ID : XVIDCodec ID/Hint : XviDDuration : 45mn 34sBit rate : 1 600 KbpsWidth : 704 pixelsHeight : 352 pixelsDisplay aspect ratio : 2.000Frame rate : 23.976 (24000/1001) fpsColor space : YUVChroma subsampling : 4:2:0Bit depth : 8 bitsScan type : ProgressiveCompression mode : LossyBits/(Pixel*Frame) : 0.269Stream size : 522 MiB (80%)Writing library : XviD 67

Audio #1ID : 1Format : AC-3Format/Info : Audio Coding 3Mode extension : CM (complete main)Format settings, Endianness : BigCodec ID : 2000Duration : 45mn 34sBit rate mode : ConstantBit rate : 192 KbpsChannel(s) : 2 channelsChannel positions : Front: L RSampling rate : 48.0 KHzFrame rate : 31.250 fps (1536 spf)Compression mode : LossyStream size : 62.6 MiB (10%)Alignment : Split accross interleavesInterleave, duration : 42 ms (1.00 video frame)Interleave, preload duratio : 500 ms

Audio #2ID : 2Format : AC-3Format/Info : Audio Coding 3Mode extension : CM (complete main)Format settings, Endianness : BigCodec ID : 2000Duration : 45mn 34sBit rate mode : ConstantBit rate : 192 KbpsChannel(s) : 2 channelsChannel positions : Front: L RSampling rate : 48.0 KHzFrame rate : 31.250 fps (1536 spf)Compression mode : LossyStream size : 62.6 MiB (10%)Alignment : Split accross interleavesInterleave, duration : 42 ms (1.00 video frame)Interleave, preload duratio : 500 ms
Внимание! Раздача ведётся путём добавления новых серий; при каждом добавлении создаётся новый торрент. Чтобы начать докачку новой серии,пользователям необходимо сделать следующее:
(1) остановить скачивание,
(2) удалить старый торрент у себя из клиента (старые серии удалять не надо),
(3) скачать новый торрент и запустить его у себя в клиенте вместо старого, при этом указать клиенту путь в старую папку куда и должнопроисходить скачивание новых серий.

Ваш клиент при этом должен произвести хеширование (проверку) старой папки (если не производит сам - помогите ему сделать это), и будет докачивать только те серии
которых у вас ещё нет. Старые серии при этом не удаляются, а продолжают раздаваться!

Eсли вы уже удалили старые серии, то предотвратить повторную закачку старых серий можно, отжав галочку в соответствующих местах при запуске нового торрента.

По возможности, желательно не удалять старые серии как можно дольше чтобы релизёр не столько продолжал раздавать старые серии, а смог сконцентрироваться на новых.


Внимание! AdBlock блокирует показ скриншотов, все вопросы к разработчикам )))
Трекер:  [ 19-Фев-2020 09:48 ]

  

Скачать .torrent

Размер .torrent файла 26 KB


Размер: 8.59 GB
Хэш (hash) релиза: 38ca26272cf41a80d7ce404ca4fa57c7d2d49554
Подписка на обновления:
dpd RU

Еще никто не оставлял запись к записи скачать торрент Блудный сын Prodigal Son . Будь первым!

!Обратная связь