Скачать через торрент Пожарная часть 19 Station 19 Фильм бесплатно в хорошем качестве torrent

Скачивайте на UnionPeer.org фильмы через торрент без регистрации. Новинки кино в хорошем качестве через торрент. На UnionPeer.org можно скачать через торрент фильмы 2014 и 2015 годов. Самые новые фильмы.

Скачать торрент Пожарная часть 19 Station 19 бесплатно через .torrent фильм мультфильм сериал

Статистика раздачи
Размер:  36.26 GB   |    Зарегистрирован:  1 месяц 17 дней   |    .torrent скачан:  10 раз   |   
Раздают:  1  
   
загрузка...
 
Автор Сообщение

Galfimbul ghost

avatar Galfimbul ghost


Пожарная часть 19 / Station 19


Год выпуска: 2018
Страна: США
Жанр: Боевик, триллер, драма, мелодрама
Продолжительность: ~ 00:44:00

Перевод: Профессиональный (полное дублирование) студия Кириллица

Режиссёр: Пэрис Барклай, Джеймс Хэнлон, Зинга Стюарт

В ролях: Джессика Ортиз, Джейсон Уинстон Джордж, Грэй Дэймон, Барретт Досс, Альберто Фрезза, Джей Хейден, Окьерете Онаодован, Даниэль Савре, Мигель Сандовал, Калеб Александр Смит, Джереми Коэнур, Эшли Фусс, Лесли Хоуп, Киана Кейн Эмма Ловен, Эллен Помпео, Шандра Уилсон

Описание: Сериал рассказывает о работниках пожарной станции номер девятнадцать, что располагается в городе Сиэтл. В центре внимания оказывается Энди Эррера. Главная героиня этого сериала работает в своей профессии уже давно. К тому же она обладает некоторой властью, ведь является дочерью самого начальника станции. Характер у Энди весьма сильный: девушка знает, как держать себя в руках даже в самых сложных ситуациях. С такой боевой натурой справляются далеко не все. Новичок Бэн Уоррен многого насмотрелся в своей жизни, ведь когда-то работал анастезиологом в одной из крупнейших больниц Сиэтла. Ему приходится несладко с такой суровой коллегой. Однако рано или поздно связи между персонажами наладятся. История также захватывает рассказ о личной жизни бесстрашного лейтенанта Джека Гибсона, человека, который всю свою жизнь отдал любимому делу. Помимо привычных дел и рабочих забот главные герои задумываются о личной жизни. Энди Эррера влюблена в Райана Тэннера, человека, который служит в местной полиции. Главная героиня до сих пор скрывает свои чувства, выплескивая эмоции на работе. Ей приходится сражаться со стихией, а также быть достойным товарищем для своих коллег по работе. Удается, увы, не всегда.



Качество: WEB-DL 1080p
Формат: MKV
Видео: AVC, 1920x1080 (16:9), 23.976 fps, ~ 10.5 Mbps
Аудио 1: AC3, 48,0 КГц, 2 ch, 256 kbps - Rus
Аудио 2: E-AC3, 48,0 КГц, 6 ch, 640 kbps - Eng
Субтитры: Английские (SDH)
Реклама: Отсутствует
01. Застрять / Stuck
02. Невидимый / Invisible to Me
03. Сдержать пламя / Contain the Flame
04. Разжечь пламя заново / Reignited
05. Шок / Shock to the System
06. Сильнее вместе / Stronger Together
07. Пусть горит / Let It Burn
08. Каждая секунда на счету / Every Second Counts
09. Тепловой ящик / Hot Box
10. Не её герой / Not Your Hero
Релиз: Zgurvas для принцессы owlways
Уникальный идентификатор                 : 121918572412821995345689701360534474323 (0x5BB8A9B6596CC266DF6AC3D64666CE53)
Полное имя                               : D:\Фильмы\Station 19 S01. Кириллица 1080p\Station.19.S01E02.Invisible.To.Me.1080p.WEB-DL.DUB[Кириллица].mkv
Формат                                   : Matroska
Версия формата                           : Version 4 / Version 2
Размер файла                             : 3,59 Гбайт
Продолжительность                        : 42 м. 53 с.
Режим общего битрейта                    : Переменный
Общий поток                              : 12,0 Мбит/сек
Название фильма                          : Невидимый
Дата кодирования                         : UTC 2018-04-29 11:43:56
Программа кодирования                    : mkvmerge v22.0.0 (''At The End Of The World'') 32-bit
Библиотека кодирования                   : libebml v1.3.5 + libmatroska v1.4.8
Обложка                                  : Yes
Attachments                              : cover.station.19.jpg

Видео
Идентификатор                            : 1
Формат                                   : AVC
Формат/Информация                        : Advanced Video Codec
Профиль формата                          : High@L4
Настройки формата                        : CABAC / 4 Ref Frames
Параметр CABAC формата                   : Да
Параметр RefFrames формата               : 4 кадра
Идентификатор кодека                     : V_MPEG4/ISO/AVC
Продолжительность                        : 42 м. 53 с.
Вид битрейта                             : Переменный
Битрейт                                  : 11,1 Мбит/сек
Максимальный битрейт                     : 15,0 Мбит/сек
Ширина                                   : 1920 пикселей
Высота                                   : 1080 пикселей
Соотношение сторон                       : 16:9
Режим частоты кадров                     : Постоянный
Частота кадров                           : 23,976 (24000/1001) кадра/сек
Цветовое пространство                    : YUV
Субдискретизация насыщенности            : 4:2:0
Битовая глубина                          : 8 бит
Тип развёртки                            : Прогрессивная
Бит/(Пиксели*Кадры)                      : 0.223
Размер потока                            : 3,32 Гбайт (93%)
Default                                  : Да
Forced                                   : Нет
Цветовой диапазон                        : Limited
Основные цвета                           : BT.709
Характеристики трансфера                 : BT.709
Коэффициенты матрицы                     : BT.709

Аудио #1
Идентификатор                            : 2
Формат                                   : AC-3
Формат/Информация                        : Audio Coding 3
Идентификатор кодека                     : A_AC3
Продолжительность                        : 42 м. 53 с.
Вид битрейта                             : Постоянный
Битрейт                                  : 256 Кбит/сек
Каналы                                   : 2 канала
Расположение каналов                     : Front: L R
Частота                                  : 48,0 КГц
Частота кадров                           : 31,250 кадров/сек (1536 SPF)
Битовая глубина                          : 16 бит
Метод сжатия                             : С потерями
Размер потока                            : 78,5 Мбайт (2%)
Заголовок                                : AC3 2.0 @ 256 kbps - DUB, Кириллица
Язык                                     : Russian
ServiceKind/String                       : Complete Main
Default                                  : Да
Forced                                   : Нет

Аудио #2
Идентификатор                            : 3
Формат                                   : E-AC-3
Формат/Информация                        : Enhanced Audio Coding 3
Идентификатор кодека                     : A_EAC3
Продолжительность                        : 42 м. 53 с.
Вид битрейта                             : Постоянный
Битрейт                                  : 640 Кбит/сек
Каналы                                   : 6 каналов
Расположение каналов                     : Front: L C R, Side: L R, LFE
Частота                                  : 48,0 КГц
Частота кадров                           : 187,500 кадров/сек (256 SPF)
Метод сжатия                             : С потерями
Размер потока                            : 196 Мбайт (5%)
Заголовок                                : E-AC3 5.1 @ 640 kbps - Original
Язык                                     : English
ServiceKind/String                       : Complete Main
Default                                  : Нет
Forced                                   : Нет

Текст
Идентификатор                            : 4
Формат                                   : UTF-8
Идентификатор кодека                     : S_TEXT/UTF8
Идентификатор кодека/Информация          : UTF-8 Plain Text
Продолжительность                        : 42 м. 42 с.
Битрейт                                  : 100 бит/сек
ElementCount                             : 1083
Размер потока                            : 31,5 Кбайт (0%)
Заголовок                                : SDH
Язык                                     : English
Default                                  : Нет
Forced                                   : Нет


Трекер:  [ 19-Фев-2020 10:18 ]

  

Скачать .torrent

Размер .torrent файла 92 KB


Размер: 36.26 GB
Хэш (hash) релиза: 3b7164ddb6b70511bf937ede1c69127490b09650
Подписка на обновления:

Торренты, похожие на Пожарная часть 19 Station 19 скачать торрент

Форум Название Автор Размер S L Добавлен
Зарубежные сериалы ·· Пожарная часть 19 / Station 19 / Сезон: 1 / Серии: 1-10 из 10 (Пэрис Барклай, Джеймс Хэнлон, Зинга Стюарт) [2018, США, Боевик, триллер, драма, мелодрама, WEBRip] MVO (NewStudio) + Original + Subs (Eng) Galfimbul ghost 84042739117.83 GB 0 0 1529137087

11:18

16-Июн-18

Зарубежные сериалы ·· Пожарная часть 19 / Station 19 / Сезон: 1 / Серии: 1-10 из 10 (Пэрис Барклай, Джеймс Хэнлон, Зинга Стюарт) [2018, США, Боевик, триллер, драма, мелодрама, WEBRip 720p] MVO (Jaskier) + Original Galfimbul ghost 2166849307820.18 GB 0 0 1522703923

00:18

3-Апр-18

Зарубежные сериалы ·· Пожарная часть 19 / Station 19 / Сезон: 1 / Серии: 1-10 из 10 (Пэрис Барклай, Джеймс Хэнлон, Зинга Стюарт) [2018, США, Боевик, триллер, драма, мелодрама, WEBRip] MVO (Jaskier) + Original Galfimbul ghost 53848678405.02 GB 0 0 1522703898

00:18

3-Апр-18

Зарубежные сериалы ·· Пожарная часть 19 / Station 19 / Сезон: 1 / Серии: 1-10 из 10 (Пэрис Барклай, Джеймс Хэнлон, Зинга Стюарт) [2018, США, Боевик, триллер, драма, мелодрама, WEBRip] DVO (Gears Media) + Original Galfimbul ghost 56197711845.23 GB 0 0 1522376292

05:18

30-Мар-18

Зарубежные сериалы ·· Пожарная часть 19 / Station 19 / Сезон: 1 / Серии: 1-10 из 10 (Пэрис Барклай, Джеймс Хэнлон, Зинга Стюарт) [2018, США, Боевик, триллер, драма, мелодрама, WEBRip 720p] DVO (Gears Media) + Original Galfimbul ghost 2249439520920.95 GB 0 0 1522369099

03:18

30-Мар-18

Зарубежные сериалы ·· Пожарная часть 19 / Station 19 / Сезон: 1 / Серии: 1-9 из 10 (Пэрис Барклай) [2018, США, боевик, триллер, драма, мелодрама, WEBRip] DUB (Кириллица) + Original Galfimbul ghost 67559813126.29 GB 0 0 1527266891

19:48

25-Май-18

Еще никто не оставлял запись к записи скачать торрент Пожарная часть 19 Station 19 . Будь первым!

!Обратная связь