Скачать через торрент Клятва Yemin Фильм бесплатно в хорошем качестве torrent

Скачивайте на UnionPeer.org фильмы через торрент без регистрации. Новинки кино в хорошем качестве через торрент. На UnionPeer.org можно скачать через торрент фильмы 2014 и 2015 годов. Самые новые фильмы.

Скачать торрент Клятва Yemin бесплатно через .torrent фильм мультфильм сериал

Статистика раздачи
Размер:  11.48 GB   |    Зарегистрирован:  1 месяц 20 дней   |    .torrent скачан:  8 раз   |   
Раздают:  1  
 

Скачать Клятва / Yemin / Серии: 51-66 (171-186) из 100 (220) (Айхан Озен / Ayhan Özen, Серкан Мут / Serkan Mut) [2020, Турция, Мелодрама, драма, WEBRip] VO beni birakma через torrent

 
загрузка...
 
Автор Сообщение

Galfimbul ghost

avatar Galfimbul ghost


Клятва / Yemin

Год выпуска: 2020
Производство: KARAMEL Yapim
Жанр: Мелодрама, драма
Продолжительность: ~ 01:00:00 / каждая серия
Перевод: авторский одноголосый закадровый (beni_birakma)
Субтитры: отсутствуют

Режиссёр: Айхан Озен / Ayhan Özen, Серкан Мут / Serkan Mut

В ролях: Озге Йагыз, Гёкберк Демирджи, Ягмур Шахбазова, Джан Верел, Джейда Олгунер, Гюларджан Гюрсес, Беркант Мюфтюлер, Дерья Куртулуш Октар, Тугче Эрсой, Мустафа Шимшек, Эсра Демир Чобан, Сыла Тюркоглу, Гёзде Гюндюзлю, Ягмур Акдаг, Али Дерели, Барыш Гюрсес, Туггюль Кючюкоглу, Джан Чаглар, Балым Гайе Байрак, Гюль Арджан.

Описание: Рейхан – молодая, скромная девушка, которая живет в маленькой деревушке. После смерти матери Рейхан живет одна. Однажды один из богатейших бизнесменов Турции Хикмет Тархун, который всегда заботился о ней, как родной дядя, приезжает к Рейхан с необычной просьбой. Он просит ее выйти замуж за его сына Эмира. Тот парень безответственный и бесшабашный, а отец хочет, чтобы тот остепенился, завел семью и стал немного ответственнее. А Рейхан не соглашается, так как считает, что несправедливо ставить перед фактом Эмира, он сам должен повзрослеть сначала. Но у Хикмета нет времени, он смертельно болен. Узнав об этом Рейхан не сможет ему отказать и поклянется, что не разведется с Эмиром. А Эмир клянется, что при любых обстоятельствах разведется с нежеланной женой. Молодых людей ждет то, чего они не ожидали найти в этом браке – любовь…

Качество: WEBRip
Формат: AVI
Видео кодек: XviD
Аудио кодек: MP3
Видео: 720x400 (1.80:1), 25 fps, XviD build 67 ~1415 kbps avg, 0.20 bit/pix
Аудио: 44.100 kHz, MPEG Layer 3, 2 ch, ~192 kbps avg

Реклама:отсутствует
Формат : AVI
Формат/Информация : Audio Video Interleave
Размер файла : 710 Мбайт
Продолжительность : 1 ч. 1 м.
Общий поток : 1617 Кбит/сек

Видео
Идентификатор : 0
Формат : MPEG-4 Visual
Профиль формата : Advanced Simple@L5
Параметр BVOP формата : 2
Параметр QPel формата : Нет
Параметр GMC формата : Без точки перехода
Параметр матрицы формата : Default (H.263)
Идентификатор кодека : XVID
Идентификатор кодека/Подсказка : XviD
Продолжительность : 1 ч. 1 м.
Битрейт : 1415 Кбит/сек
Ширина : 720 пикселей
Высота : 400 пикселей
Соотношение сторон : 16:9
Частота кадров : 25,000 кадров/сек
Цветовое пространство : YUV
Субдискретизация насыщенности : 4:2:0
Битовая глубина : 8 бит
Тип развёртки : Прогрессивная
Метод сжатия : С потерями
Бит/(Пиксели*Кадры) : 0.197
Размер потока : 622 Мбайт (88%)
Библиотека кодирования : XviD 69

Аудио
Идентификатор : 1
Формат : MPEG Audio
Версия формата : Version 1
Профиль формата : Layer 3
Режим : Joint stereo
Расширение режима : MS Stereo
Идентификатор кодека : 55
Идентификатор кодека/Подсказка : MP3
Продолжительность : 1 ч. 1 м.
Вид битрейта : Постоянный
Битрейт : 192 Кбит/сек
Каналы : 2 канала
Частота : 44,1 КГц
Метод сжатия : С потерями
Размер потока : 84,4 Мбайт (12%)
Выравнивание : Разделение по промежуткам
Продолжительность промежутка : 40 мс. (1,00 видеокадр)
Время предзагрузки промежутка : 500 мс.
Библиотека кодирования : LAME3.99.5
Внимание! Раздача ведётся путём добавления новых серий; при каждом добавлении создётся новый торрент. Чтобы начать докачку новой серии, пользователям необходимо сделать следующее:

Остановить скачивание.
Удалить старый торрент у себя из клиента (старые серии удалять не надо).
Скачать новый торрент и запустить его у себя в клиенте вместо старого, при этом указать клиенту путь в старую папку куда и должно происходить скачивание новых серий.

Ваш клиент при этом должен произвести хеширование (проверку) старой папки (если не производит сам - помогите ему сделать это), и будет докачивать только те серии которых у вас ещё нет. Старые серии при этом не удаляются, а продолжают раздаваться!
Eсли вы уже удалили старые серии, то предотвратить повторную закачку старых серий можно, отжав галочку в соответсвующих местах при запуске нового торрента. По возможности, желательно не удалять старые серии как можно дольше чтобы релизёр не столько продолжал раздавать старые серии, а смог сконцентрироваться на новых.


Трекер:  [ 19-Фев-2020 10:18 ]

  

Скачать .torrent

Размер .torrent файла 58 KB


Размер: 11.48 GB
Хэш (hash) релиза: 0df1601f82f0a93d58137f6b2b682a30a76fffc8
Подписка на обновления:

Еще никто не оставлял запись к записи скачать торрент Клятва Yemin . Будь первым!

!Обратная связь