Скачать через торрент Дочь посла Sefirin Kizi Фильм бесплатно в хорошем качестве torrent

Скачивайте на UnionPeer.org фильмы через торрент без регистрации. Новинки кино в хорошем качестве через торрент. На UnionPeer.org можно скачать через торрент фильмы 2014 и 2015 годов. Самые новые фильмы.

Скачать торрент Дочь посла Sefirin Kizi бесплатно через .torrent фильм мультфильм сериал

Статистика раздачи
Размер:  15.36 GB   |    Зарегистрирован:  7 месяцев   |    .torrent скачан:  33 раза   |   
Раздают:  1  
 

Скачать Дочь посла / Sefirin Kizi / Серии: 1-9 из 25 (Эмре Карабушак) [2019, Турция, Драма, WEBRip] VO (turok1990) через torrent

 
Sprinthost
загрузка...
 
Автор Сообщение

Galfimbul ghost

avatar Galfimbul ghost


Дочь посла / Sefirin Kizi

Год выпуска: 2019
Производство: O3 Medya, NGM Medya
Жанр: Драма
Продолжительность: ~ 02:37:00 / каждая серия
Перевод: любительский одноголосый закадровый (turok1990)
Субтитры: отсутствуют

Режиссёр: Емре Кабакушак

В ролях: Неслихан Атагюль, Энгин Акюрек, Ураз Кайгылароглу, Эрхан Алпай, Эрдал Кючюккёмюрджю, Гонджа Джиласун, Тюлин Язкан, Догукан Полат, Хивда Зизан Альп, Озлем Чакар Ялчинкая, Эсра Кызылдоган, Джемре Октем, Эдип Тепели, Берен Генчальп.

Описание: Молодые люди Санджар и Нарэ безумно полюбили друг друга, однако отец девушки был против их отношений. Однажды Нарэ и Санджар решают сбежать и тайно пожениться. Однако в день свадьбы Нарэ исчезает. Санджар в отчаянии. Он считает, что Нарэ не выдержала и выбрала отца. Но дела обстоят совсем иначе – Нарэ ушла под давлением и угрозами отца. Так и жили они страдая в одиночку и тоскуя друг по другу. Спустя годы Нарэ вновь появляется в жизни Санджара. И в самый неожиданный момент – когда он уже собирался жениться на другой женщине, решив начать жизнь заново… Сможет ли Нарэ залечить раны, нанесенные ею же самой? Возродится ли их любовь из пепла, в который превратился сгорая на протяжении многих лет?

Качество: WEBRip
Формат: AVI
Видео кодек: XviD
Аудио кодек: MP3
Видео: 720x400 (1.80:1), 25 fps, XviD build 73 ~1417 kbps avg, 0.21 bit/pixel
Аудио: 44.100 kHz, MPEG Layer 3, 2 ch, ~192 kbps avg

Реклама:Отсутствует
Формат : AVI
Формат/Информация : Audio Video Interleave
Размер файла : 1,77 Гбайт
Продолжительность : 2 ч. 37 м.
Общий поток : 1616 Кбит/сек

Видео
Идентификатор : 0
Формат : MPEG-4 Visual
Профиль формата : Advanced Simple@L5
Параметр BVOP формата : 2
Параметр QPel формата : Нет
Параметр GMC формата : Без точки перехода
Параметр матрицы формата : Default (H.263)
Идентификатор кодека : XVID
Идентификатор кодека/Подсказка : XviD
Продолжительность : 2 ч. 37 м.
Битрейт : 1414 Кбит/сек
Ширина : 720 пикселей
Высота : 400 пикселей
Соотношение сторон : 16:9
Частота кадров : 25,000 кадров/сек
Цветовое пространство : YUV
Субдискретизация насыщенности : 4:2:0
Битовая глубина : 8 бит
Тип развёртки : Прогрессивная
Метод сжатия : С потерями
Бит/(Пиксели*Кадры) : 0.196
Размер потока : 1,55 Гбайт (88%)
Библиотека кодирования : XviD 67

Аудио
Идентификатор : 1
Формат : MPEG Audio
Версия формата : Version 1
Профиль формата : Layer 3
Режим : Joint stereo
Расширение режима : MS Stereo
Идентификатор кодека : 55
Идентификатор кодека/Подсказка : MP3
Продолжительность : 2 ч. 37 м.
Вид битрейта : Постоянный
Битрейт : 192 Кбит/сек
Каналы : 2 канала
Частота : 44,1 КГц
Метод сжатия : С потерями
Размер потока : 216 Мбайт (12%)
Выравнивание : Разделение по промежуткам
Продолжительность промежутка : 40 мс. (1,00 видеокадр)
Время предзагрузки промежутка : 500 мс.
Библиотека кодирования : LAME
Внимание! Раздача ведётся путём добавления новых серий; при каждом добавлении создётся новый торрент. Чтобы начать докачку новой серии, пользователям необходимо сделать следующее:

Остановить скачивание.
Удалить старый торрент у себя из клиента (старые серии удалять не надо).
Скачать новый торрент и запустить его у себя в клиенте вместо старого, при этом указать клиенту путь в старую папку куда и должно происходить скачивание новых серий.

Ваш клиент при этом должен произвести хеширование (проверку) старой папки (если не производит сам - помогите ему сделать это), и будет докачивать только те серии которых у вас ещё нет. Старые серии при этом не удаляются, а продолжают раздаваться!
Eсли вы уже удалили старые серии, то предотвратить повторную закачку старых серий можно, отжав галочку в соответсвующих местах при запуске нового торрента. По возможности, желательно не удалять старые серии как можно дольше чтобы релизёр не столько продолжал раздавать старые серии, а смог сконцентрироваться на новых.


Внимание! AdBlock блокирует показ скриншотов, все вопросы к разработчикам )))
Трекер:  [ 19-Фев-2020 10:18 ]

  

Скачать .torrent

Размер .torrent файла 77 KB


Размер: 15.36 GB
Хэш (hash) релиза: dc74a43c50e197df8cb344ef5c40877b400fb22f
Подписка на обновления:
dpd RU

Еще никто не оставлял запись к записи скачать торрент Дочь посла Sefirin Kizi . Будь первым!

!Обратная связь