Скачать через торрент Любовь напоказ Afili Ask Фильм бесплатно в хорошем качестве torrent

Скачивайте на UnionPeer.org фильмы через торрент без регистрации. Новинки кино в хорошем качестве через торрент. На UnionPeer.org можно скачать через торрент фильмы 2014 и 2015 годов. Самые новые фильмы.

Скачать торрент Любовь напоказ Afili Ask бесплатно через .torrent фильм мультфильм сериал

Статистика раздачи
Размер:  53.68 GB   |    Зарегистрирован:  6 месяцев   |    .torrent скачан:  42 раза   |   
Раздают:  1  
 

Скачать Любовь напоказ / Afili Ask / Серии: 1-34 из ? (Сердар Гёзелекли / Serdar Gözelekli) [2019, Турция, Мелодрама, комедия, WEBRip] DVO (dizimania) через torrent

 
Sprinthost
загрузка...
 
Автор Сообщение

Galfimbul ghost

avatar Galfimbul ghost


Любовь напоказ / Afili Ask

Год выпуска: 2019
Производство: Kanal D
Жанр: Мелодрама, комедия
Продолжительность: ~ 02:10:00 / каждая серия
Перевод: любительский (двухголосый закадровый А.Гайдаржи & А.Юрченко)
Субтитры: отсутствуют

Режиссёр: Сердар Гёзелекли / Serdar Gözelekli

В ролях: Чаглар Эртугрул, Бурджу Озберк, Танер Румели, Зейнеп Тугче Баят, Угур Узунель, Неше Байкент, Алтан Эркекли, Гюзиде Дурмаз, Серкай Тютюнджю, Бениан Донмез

Описание: Любовь напоказ / Afili Aşk турецкий сериал — летняя премьера 2019 года. Жила была девушка, скромная и веселая красавица Айше. Жила она в простом районе и работала в ателье. Жизнь Айше была скучна и однообразна да еще и братья тираны держали её под неустанным контролем. И мечтала эта девушка выйти замуж за своего любимого, но тут то все и завертелось. Решили братья выдать её замуж совсем не за того парня. А любимый услышав о необходимости пожениться скрылся в тумане. И что теперь делать бедной девушке? И тут пришло решение, спасение, или нежданная любовь в лице одного плейбоя. Керем — наследник текстильного бизнеса, красавец и бабник и по совместительству начальник Айше однажды столкнулся с девушкой не ставшей жертвой его очарования. Так получилось, что в поисках решения своей проблемы Айше вовлекает Керема... И вот они уже женаты. Не успев опомнится от этого, парочка будет вовлечена все в новые и новые приключения...

Качество: WEBRip
Формат: AVI
Видео кодек: XviD
Аудио кодек: MP3
Видео: 720x400 (1.80:1), 25 fps, XviD build 73 ~1417 kbps avg, 0.21 bit/pixel
Аудио: 44.100 kHz, MPEG Layer 3, 2 ch, ~192 kbps avg

Реклама:Отсутствует
Формат : AVI
Формат/Информация : Audio Video Interleave
Размер файла : 1,47 Гбайт
Продолжительность : 2 ч. 9 м.
Общий поток : 1618 Кбит/сек

Видео
Идентификатор : 0
Формат : MPEG-4 Visual
Профиль формата : Advanced Simple@L5
Параметр BVOP формата : 2
Параметр QPel формата : Нет
Параметр GMC формата : Без точки перехода
Параметр матрицы формата : Default (H.263)
Идентификатор кодека : XVID
Идентификатор кодека/Подсказка : XviD
Продолжительность : 2 ч. 9 м.
Битрейт : 1417 Кбит/сек
Ширина : 720 пикселей
Высота : 400 пикселей
Соотношение сторон : 16:9
Частота кадров : 25,000 кадров/сек
Цветовое пространство : YUV
Субдискретизация насыщенности : 4:2:0
Битовая глубина : 8 бит
Тип развёртки : Прогрессивная
Метод сжатия : С потерями
Бит/(Пиксели*Кадры) : 0.197
Размер потока : 1,28 Гбайт (88%)
Библиотека кодирования : XviD 67

Аудио
Идентификатор : 1
Формат : MPEG Audio
Версия формата : Version 1
Профиль формата : Layer 3
Режим : Joint stereo
Идентификатор кодека : 55
Идентификатор кодека/Подсказка : MP3
Продолжительность : 2 ч. 9 м.
Вид битрейта : Постоянный
Битрейт : 192 Кбит/сек
Каналы : 2 канала
Частота : 44,1 КГц
Метод сжатия : С потерями
Размер потока : 178 Мбайт (12%)
Выравнивание : Разделение по промежуткам
Продолжительность промежутка : 40 мс. (1,00 видеокадр)
Время предзагрузки промежутка : 500 мс.
Внимание! Раздача ведётся путём добавления новых серий; при каждом добавлении создётся новый торрент. Чтобы начать докачку новой серии, пользователям необходимо сделать следующее:

Остановить скачивание.
Удалить старый торрент у себя из клиента (старые серии удалять не надо).
Скачать новый торрент и запустить его у себя в клиенте вместо старого, при этом указать клиенту путь в старую папку куда и должно происходить скачивание новых серий.

Ваш клиент при этом должен произвести хеширование (проверку) старой папки (если не производит сам - помогите ему сделать это), и будет докачивать только те серии которых у вас ещё нет. Старые серии при этом не удаляются, а продолжают раздаваться!
Eсли вы уже удалили старые серии, то предотвратить повторную закачку старых серий можно, отжав галочку в соответсвующих местах при запуске нового торрента. По возможности, желательно не удалять старые серии как можно дольше чтобы релизёр не столько продолжал раздавать старые серии, а смог сконцентрироваться на новых.


Внимание! AdBlock блокирует показ скриншотов, все вопросы к разработчикам )))
Трекер:  [ 19-Фев-2020 10:18 ]

  

Скачать .torrent

Размер .torrent файла 270 KB


Размер: 53.68 GB
Хэш (hash) релиза: 12079e8c85c113273e3c09955a891a3970a6dcb8
Подписка на обновления:

Торренты, похожие на Любовь напоказ Afili Ask скачать торрент

Форум Название Автор Размер S L Добавлен
Зарубежные сериалы ·· Любовь напоказ / Afili Ask / Серии: 1-34 из ? (Сердар Гёзелекли) [2019-2020, Турция, Мелодрама, комедия, WEBRip (720p)] DVO (А.Гайдаржи & А.Юрченко) Galfimbul ghost 7062411522765.77 GB 0 0 1582096935

10:22

19-Фев-20

dpd RU

Еще никто не оставлял запись к записи скачать торрент Любовь напоказ Afili Ask . Будь первым!

!Обратная связь