Скачать через торрент Легенды завтрашнего дня DCs Legends of Tomorrow Фильм бесплатно в хорошем качестве torrent

Скачивайте на UnionPeer.org фильмы через торрент без регистрации. Новинки кино в хорошем качестве через торрент. На UnionPeer.org можно скачать через торрент фильмы 2014 и 2015 годов. Самые новые фильмы.

Скачать торрент Легенды завтрашнего дня DCs Legends of Tomorrow бесплатно через .torrent фильм мультфильм сериал

Статистика раздачи
Размер:  11.77 GB   |    Зарегистрирован:  4 месяца 11 дней   |    .torrent скачан:  7 раз   |   
Раздают:  1  
   
Timeweb Many GEOs Sprinthost
загрузка...
 
Автор Сообщение

Galfimbul ghost

avatar Galfimbul ghost


Легенды завтрашнего дня / DC''s Legends of Tomorrow

Год выпуска: 2020
Страна: США
Жанр: Фантастика, боевик, драма, приключения
Продолжительность: 00:43:00
Перевод: Профессиональный (многоголосый закадровый) LostFilm
Режиссёр: Дэвид Геддес, Дермотт Даунс, Грегори Смит
В ролях: Артур Дарвилл, Франц Драмех, Виктор Гарбер, Кейти Лотц, Вентворт Миллер, Доминик Пёрселл, Сиара Рене, Брэндон Рут
Описание: Когда одних героев становится недостаточно, спасти мир могут только легенды... В 2166 году могущественный человек по имени Вандал Сэвидж (Каспер Крамп) добился немыслимого - завоевал весь мир. Путешественник во времени Рип Хантер (Артур Дарвилл) видел, какое будущее ожидает человечество, если беспощадный злодей осуществит свой коварный план. На космическом корабле, способном перемещаться во времени, Хантер возвращается на 150 лет назад, в 2016 год. В нашем мире он собирает команду, которой будет под силу остановить Сэвиджа. Рип приглашает примкнуть к группе не только супергероев, но и преступников, пообещав, что они войдут в историю как легенды. Однако что может быть общего у мошенников вроде Капитана Холода (Вентворт Миллер) и Тепловой волны (Доминик Пёрселл) и ученого-миллиардера Рэя Палмера (Брэндон Рут)? Кроме них к команде Хантера присоединяются Сара Лэнс (Кейти Лотц), она же Белая канарейка, доктор Мартин Штейн (Виктор Гарбер), делящий опеку над Огненным штормом с молодым и амбициозным Джефферсоном Джексоном (Франц Драмех), а также Орлица (Сиара Рене) и Ястреб (Фальк Хеншел), чья история любви насчитывает несколько тысячелетий. Сплотить всех этих людей оказывается совсем непросто, но под угрозой находится жизнь всего человечества и время в его привычном понимании. Сможет ли команда, состоящая из плутов и супергероев, одолеть бессмертного злодея, подобных которому мир доселе не видывал?

Качество: WEBRip 1080p
Контейнер: MKV
Видео: Видео: MPEG-4 AVC, 1920x1080 (16:9), 23.976 fps, 8740 Kbps
Аудио: 48.0 KHz, AC3, 2 ch, 384 Kbps [Rus]
Аудио: E-AC3, 48.0 KHz, 6 ch, 640 kbps - [Eng]
Субтитры: Английские
Реклама: Отсутствует
General

Complete name : Downloads\DCs.Legends.of.Tomorrow (сезон 05) Lostfilm-1080p\DCs.Legends.of.Tomorrow.S05E01.1080p.rus.LostFilm.mkv
Format : Matroska
Format version : Version 4 / Version 2
File size : 2.95 GiB
Duration : 42mn 19s
Overall bit rate : 9 962 Kbps
Encoded date : UTC 2020-01-17 12:27:20
Writing application : mkvmerge v18.0.0 (''Apricity'') 64-bit
Writing library : libebml v1.3.5 + libmatroska v1.4.8
DURATION : 00:42:11.137000000
NUMBER_OF_FRAMES : 871
NUMBER_OF_BYTES : 23882
_STATISTICS_WRITING_APP : mkvmerge v18.0.0 (''Apricity'') 64-bit
_STATISTICS_WRITING_DATE_UTC : 2020-01-17 12:27:20
_STATISTICS_TAGS : BPS DURATION NUMBER_OF_FRAMES NUMBER_OF_BYTES
Video #1
ID : 1
Format : AVC
Format/Info : Advanced Video Codec
Format profile : High@L4.0
Format settings, CABAC : Yes
Format settings, ReFrames : 4 frames
Codec ID : V_MPEG4/ISO/AVC
Duration : 42mn 19s
Bit rate mode : Constant
Bit rate : 8 740 Kbps
Nominal bit rate : 10 000 Kbps
Width : 1 920 pixels
Height : 1 080 pixels
Display aspect ratio : 16:9
Frame rate mode : Constant
Frame rate : 23.976 fps
Color space : YUV
Chroma subsampling : 4:2:0
Bit depth : 8 bits
Scan type : Progressive
Bits/(Pixel*Frame) : 0.176
Stream size : 2.58 GiB (88%)
Language : English
Default : Yes
Forced : No
Color primaries : BT.709
Transfer characteristics : BT.709
Matrix coefficients : BT.709
Color range : Limited
Audio #2
ID : 2
Format : AC-3
Format/Info : Audio Coding 3
Mode extension : CM (complete main)
Format settings, Endianness : Big
Codec ID : A_AC3
Duration : 42mn 19s
Bit rate mode : Constant
Bit rate : 384 Kbps
Channel(s) : 2 channels
Channel positions : Front: L R
Sampling rate : 48.0 KHz
Bit depth : 16 bits
Compression mode : Lossy
Stream size : 116 MiB (4%)
Title : LostFilm
Language : Russian
Default : Yes
Forced : No
Audio #3
ID : 3
Format : E-AC-3
Format/Info : Audio Coding 3
Format settings, Endianness : Big
Codec ID : A_EAC3
Duration : 42mn 19s
Bit rate mode : Constant
Bit rate : 640 Kbps
Channel(s) : 6 channels
Channel positions : Front: L C R, Side: L R, LFE
Sampling rate : 48.0 KHz
Compression mode : Lossy
Stream size : 194 MiB (6%)
Language : English
Default : No
Forced : No
Text #4
ID : 4
Format : UTF-8
Codec ID : S_TEXT/UTF8
Codec ID/Info : UTF-8 Plain Text
Language : English
Default : No
Forced : No
Text #5
ID : 5
Format : UTF-8
Codec ID : S_TEXT/UTF8
Codec ID/Info : UTF-8 Plain Text
Title : SDH
Language : English
Default : No
Forced : No
(1) остановить скачивание,
(2) удалить старый торрент у себя из клиента (старые серии удалять не надо),
(3) скачать новый торрент и запустить его у себя в клиенте вместо старого, при этом указать клиенту путь в старую папку куда и должно происходить скачивание новых серий.
Ваш клиент при этом должен произвести хеширование (проверку) старой папки (если не производит сам - помогите ему сделать это), и будет докачивать только те серии которых у вас ещё нет. Старые серии при этом не удаляются, а продолжают раздаваться!
Eсли вы уже удалили старые серии, то предотвратить повторную закачку старых серий можно, отжав галочку в соответсвующих местах при запуске нового торрента. По возможности, желательно не удалять старые серии как можно дольше чтобы релизёр не столько продолжал раздавать старые серии, а смог сконцентрироваться на новых
.


Внимание! AdBlock блокирует показ скриншотов, все вопросы к разработчикам )))
Трекер:  [ 19-Фев-2020 10:18 ]

  

Скачать .torrent

Размер .torrent файла 59 KB


Размер: 11.77 GB
Хэш (hash) релиза: 8190fa4eb5d600775948eb8bcd4b4629249a5e00
Подписка на обновления:
Superjob

Еще никто не оставлял запись к записи скачать торрент Легенды завтрашнего дня DCs Legends of Tomorrow . Будь первым!

!Обратная связь