Скачать через торрент Чудотворцы Miracle Workers Фильм бесплатно в хорошем качестве torrent

Скачивайте на UnionPeer.org фильмы через торрент без регистрации. Новинки кино в хорошем качестве через торрент. На UnionPeer.org можно скачать через торрент фильмы 2014 и 2015 годов. Самые новые фильмы.

Скачать торрент Чудотворцы Miracle Workers бесплатно через .torrent фильм мультфильм сериал

Статистика раздачи
Размер:  2.18 GB   |    Зарегистрирован:  9 месяцев   |    .torrent скачан:  14 раз   |   
Раздают:  1  
 

Скачать Чудотворцы / Miracle Workers / Сезон: 2 / Серии: 1-3 из 8 (Джеррад Пол, Эндрю Моджел) [2020, США, комедия, WEB-DL 720p] VO (Кураж-Бамбей) + Original + Sub (Rus/Eng) через torrent

 
 
Автор Сообщение

Galfimbul ghost

avatar Galfimbul ghost


Чудотворцы / Miracle Workers

Год выпуска: 2020
Страна: США
Жанр: комедия
Продолжительность: ~00:20:00
Перевод: Профессиональный (одноголосый закадровый) | Кураж-Бамбей
Режиссёр: Джеррад Пол / Jarrad Paul, Эндрю Моджел / Andrew Mogel

В ролях: Стив Бушеми, Дэниэл Рэдклифф, Джеральдин Висванатхан, Каран Сони, Саша Компере, Джон Басс, Лолли Адефоп и другие.
Описание: Действие происходит в мрачном Средневековье:
Крестьянин Эдди Дерьмогреб (Стив Бушеми) занимается самой грязной работой в деревне – убирает за всеми дерьмо. Его дочь Александрыа (Джеральдин Висванатхан) хотела выучиться в университете и сменить род деятельности, которая переходила в их семье из поколения в поколение, но университет оказался липой. Деньги взяли, диплом выдали, но ничему не научили. Пришлось Александре продолжать дерьмовое дело своего отца, усовершенствуя его. А в замке в это время сын правителя-тирана принц Чонсли (Дэниел Редклифф) постоянно разочаровывает отца, потому что утки увлекают его гораздо больше, чем управление государством...

Доп. информация: Сюжет второго сезона «Чудотворцев» никак не связан с первым кроме того, что также основан на произведении Саймона Рича, но совершенно другом - "Революция" ("Revolution").


Качество: WEB-DL 720p
Контейнер: MKV
Видео: 1280x720, 23.976 fps, MPEG-4 AVC, ~4300 kbps, 0.197 bits/pixel
Аудио#1 Rus: AC3, 48 kHz, 3/2 (L,C,R,l,r) + LFE ch, 384 kbps | Кураж-Бамбей
Аудио#2 Eng: AC3, 48 kHz, 3/2 (L,C,R,l,r) + LFE ch, 384 kbps
Субтитры: Русские (Кураж-Бамбей), Английские (SDH)
Реклама: Отсутствует
перевод и озвучка: Денис Колесников
работа со звуком, подгон субтитров: nvrsk
01. Graduation / Выпускница
02. Help Wanted / Требуется работник
03. Road Trip / Поездка


GeneralUnique ID : 189575718253231328594079478295932468834 (0x8E9EF48B58C0147D9CA5C7597E707E62)Complete name : V:\Miracle.Workers.s02.720p.Kuraj-Bambey\Miracle.Workers.S02E01.WEB-DL.720p.RGzsRutracker.mkvFormat : MatroskaFormat version : Version 4 / Version 2File size : 787 MiBDuration : 21 min 27 sOverall bit rate : 5 130 kb/sMovie name : Miracle Workers [2x1] GraduationEncoded date : UTC 2020-01-30 17:04:26Writing application : mkvmerge v9.2.0 (''Photograph'') 64bitWriting library : libebml v1.3.3 + libmatroska v1.4.4

VideoID : 1Format : AVCFormat/Info : Advanced Video CodecFormat profile : High@L3.1Format settings : CABAC / 4 Ref FramesFormat settings, CABAC : YesFormat settings, ReFrames : 4 framesCodec ID : V_MPEG4/ISO/AVCDuration : 21 min 27 sBit rate mode : ConstantBit rate : 4 359 kb/sNominal bit rate : 6 000 kb/sWidth : 1 280 pixelsHeight : 720 pixelsDisplay aspect ratio : 16:9Frame rate mode : ConstantFrame rate : 23.976 (24000/1001) FPSColor space : YUVChroma subsampling : 4:2:0Bit depth : 8 bitsScan type : ProgressiveBits/(Pixel*Frame) : 0.197Stream size : 669 MiB (85%)Default : YesForced : NoColor range : LimitedColor primaries : BT.709Transfer characteristics : BT.709Matrix coefficients : BT.709

Audio #1ID : 2Format : AC-3Format/Info : Audio Coding 3Codec ID : A_AC3Duration : 21 min 27 sBit rate mode : ConstantBit rate : 384 kb/sChannel(s) : 6 channelsChannel positions : Front: L C R, Side: L R, LFESampling rate : 48.0 kHzFrame rate : 31.250 FPS (1536 SPF)Bit depth : 16 bitsCompression mode : LossyStream size : 58.9 MiB (7%)Title : Кураж-БамбейLanguage : RussianService kind : Complete MainDefault : YesForced : No

Audio #2ID : 3Format : AC-3Format/Info : Audio Coding 3Codec ID : A_AC3Duration : 21 min 27 sBit rate mode : ConstantBit rate : 384 kb/sChannel(s) : 6 channelsChannel positions : Front: L C R, Side: L R, LFESampling rate : 48.0 kHzFrame rate : 31.250 FPS (1536 SPF)Bit depth : 16 bitsCompression mode : LossyStream size : 58.9 MiB (7%)Title : OriginalLanguage : EnglishService kind : Complete MainDefault : NoForced : No

Text #1ID : 4Format : UTF-8Codec ID : S_TEXT/UTF8Codec ID/Info : UTF-8 Plain TextDuration : 21 min 3 sBit rate : 137 b/sCount of elements : 443Stream size : 21.2 KiB (0%)Title : PhysKidsLanguage : RussianDefault : NoForced : No

Text #2ID : 5Format : UTF-8Codec ID : S_TEXT/UTF8Codec ID/Info : UTF-8 Plain TextDuration : 21 min 22 sBit rate : 87 b/sCount of elements : 492Stream size : 13.7 KiB (0%)Title : SDHLanguage : EnglishDefault : NoForced : No
Раздача ведётся путём добавления новых серий; при каждом добавлении создётся новый торрент. Чтобы начать докачку новой серии, пользователям необходимо сделать следующее: (1) остановить скачивание, (2) удалить старый торрент у себя из клиента (старые серии удалять не надо), (3) скачать новый торрент и запустить его у себя в клиенте вместо старого, при этом указать клиенту путь в старую папку куда и должно происходить скачивание новых серий.

Ваш клиент при этом должен произвести хеширование (проверку) старой папки (если не производит сам - помогите ему сделать это), и будет докачивать только те серии которых у вас ещё нет. Старые серии при этом не удаляются, а продолжают раздаваться!

Eсли вы уже удалили старые серии, то предотвратить повторную закачку старых серий можно, отжав галочку в соответсвующих местах при запуске нового торрента.


Внимание! AdBlock блокирует показ скриншотов, все вопросы к разработчикам )))
Трекер:  [ 19-Фев-2020 10:18 ]

  

Скачать .torrent

Размер .torrent файла 44 KB


Размер: 2.18 GB
Хэш (hash) релиза: 007ad68c223948910ea243063d7f691f611c840b
Подписка на обновления:

Еще никто не оставлял запись к записи скачать торрент Чудотворцы Miracle Workers . Будь первым!

!Обратная связь