Скачать через торрент Соседство The Neighborhood Фильм бесплатно в хорошем качестве torrent

Скачивайте на UnionPeer.org фильмы через торрент без регистрации. Новинки кино в хорошем качестве через торрент. На UnionPeer.org можно скачать через торрент фильмы 2014 и 2015 годов. Самые новые фильмы.

Скачать торрент Соседство The Neighborhood бесплатно через .torrent фильм мультфильм сериал

Статистика раздачи
Размер:  24.29 GB   |    Зарегистрирован:  1 месяц 17 дней   |    .torrent скачан:  2 раза   |   
Раздают:  1  
   
загрузка...
 
Автор Сообщение

Galfimbul ghost

avatar Galfimbul ghost


Соседство / The Neighborhood


Год выпуска: 2019
Страна: США
Жанр: Комедия
Продолжительность: ~00:20:00

Перевод: Профессиональный (многоголосый закадровый) TVShows

Режиссёр: Виктор Гонзалез, Марк Сендроуски, Джефф Гринштейн
В ролях: Макс Гринфилд, Седрик «Развлекатель», Марсель Спирс, Гари Энтони Уильямс, Слоун Робинсон, Малик Санон, Бет Берс, Тичина Арнольд, Шон МакКинни

Описание: Джонсоны только что переехали в один из уютных домиков в пригороде Лос-Анджелеса и пытаются наладить отношения с соседями. Вскоре выясняется, что местные жители составляют сплочённое сообщество, определённое не столько общими интересами, сколько цветом кожи. Завоевать себе место в чёрном районе простым белым ребятам оказывается непросто.

Сэмпл: http://multi-up.com/1243342

Качество: WEB-DL 1080p
Контейнер: MKV
Видео: MPEG-4 AVC, 1920x1080, 16:9, 24 fps, ~10000 kbps
Аудио 1: Русский, AC3, 48 kHz, 6 ch, 384 kbps
Аудио 2: Английский, E-AC3, 48 kHz, 6 ch, 640 kbps (6: 192 kbps / 13: AC3, 384 kbps)
Субтитры: Английские (кроме 13)
Реклама: Отсутствует
General
Unique ID : 185771033826291431640184388028214036583 (0x8BC2331E8760F8941AC1E8B666E84867)
Complete name : D:\The.Neighborhood.S02E01.1080p.TVShows.mkv
Format : Matroska
Format version : Version 4
File size : 1.53 GiB
Duration : 20 min 35 s
Overall bit rate : 10.7 Mb/s
Encoded date : UTC 2019-10-03 15:33:15
Writing application : mkvmerge v33.1.0 (''Primrose'') 64-bit
Writing library : libebml v1.3.7 + libmatroska v1.5.0

Video
ID : 1
Format : AVC
Format/Info : Advanced Video Codec
Format profile : High@L4
Format settings : CABAC / 4 Ref Frames
Format settings, CABAC : Yes
Format settings, Reference frames : 4 frames
Codec ID : V_MPEG4/ISO/AVC
Duration : 20 min 35 s
Bit rate mode : Constant
Bit rate : 10 000 kb/s
Width : 1 920 pixels
Height : 1 080 pixels
Display aspect ratio : 16:9
Frame rate mode : Constant
Frame rate : 24.000 FPS
Color space : YUV
Chroma subsampling : 4:2:0
Bit depth : 8 bits
Scan type : Progressive
Bits/(Pixel*Frame) : 0.201
Stream size : 1.39 GiB (90%)
Default : Yes
Forced : No
Color range : Limited
Color primaries : BT.709
Transfer characteristics : BT.709
Matrix coefficients : BT.709

Audio #1
ID : 2
Format : AC-3
Format/Info : Audio Coding 3
Commercial name : Dolby Digital
Codec ID : A_AC3
Duration : 20 min 35 s
Bit rate mode : Constant
Bit rate : 384 kb/s
Channel(s) : 6 channels
Channel layout : L R C LFE Ls Rs
Sampling rate : 48.0 kHz
Frame rate : 31.250 FPS (1536 SPF)
Compression mode : Lossy
Stream size : 56.5 MiB (4%)
Title : TVShows
Language : Russian
Service kind : Complete Main
Default : Yes
Forced : Yes

Audio #2
ID : 3
Format : E-AC-3
Format/Info : Enhanced AC-3
Commercial name : Dolby Digital Plus
Codec ID : A_EAC3
Duration : 20 min 35 s
Bit rate mode : Constant
Bit rate : 640 kb/s
Channel(s) : 6 channels
Channel layout : L R C LFE Ls Rs
Sampling rate : 48.0 kHz
Frame rate : 31.250 FPS (1536 SPF)
Compression mode : Lossy
Stream size : 94.2 MiB (6%)
Title : Original
Language : English
Service kind : Complete Main
Default : No
Forced : No

Text
ID : 4
Format : UTF-8
Codec ID : S_TEXT/UTF8
Codec ID/Info : UTF-8 Plain Text
Duration : 20 min 5 s
Bit rate : 93 b/s
Count of elements : 462
Stream size : 13.8 KiB (0%)
Title : English
Language : English
Default : No
Forced : No
При каждом добавлении создаётся новый торрент. Чтобы начать докачку новой серии, пользователям необходимо сделать следующее:

остановить скачивание,
удалить старый торрент у себя из клиента (старые серии удалять не надо),
скачать новый торрент и запустить его у себя в клиенте вместо старого, при этом указать клиенту путь в старую папку куда и должно происходить скачивание новых серий.

Ваш клиент при этом должен произвести хеширование (проверку) старой папки (если не производит сам - помогите ему сделать это), и будет докачивать только те серии которых у вас ещё нет. Старые серии при этом не удаляются, а продолжают раздаваться!
Eсли вы уже удалили старые серии, то предотвратить повторную закачку старых серий можно, отжав галочку в соответствующих местах при запуске нового торрента. По возможности, желательно не удалять старые серии как можно дольше чтобы релизёр не столько продолжал раздавать старые серии, а смог сконцентрироваться на новых.


Трекер:  [ 19-Фев-2020 10:18 ]

  

Скачать .torrent

Размер .torrent файла 123 KB


Размер: 24.29 GB
Хэш (hash) релиза: 52619d3019c6fedb80ec41a92f46e9af1601d5fa
Подписка на обновления:

Еще никто не оставлял запись к записи скачать торрент Соседство The Neighborhood . Будь первым!

!Обратная связь