Скачать через торрент Звёздный путь: Пикар Star Trek: Picard Фильм бесплатно в хорошем качестве torrent

Скачивайте на UnionPeer.org фильмы через торрент без регистрации. Новинки кино в хорошем качестве через торрент. На UnionPeer.org можно скачать через торрент фильмы 2014 и 2015 годов. Самые новые фильмы.

Скачать торрент Звёздный путь: Пикар Star Trek: Picard бесплатно через .torrent фильм мультфильм сериал

Статистика раздачи
Размер:  11.58 GB   |    Зарегистрирован:  7 месяцев   |    .torrent скачан:  43 раза   |   
Раздают:  1  
   
Sprinthost
загрузка...
 
Автор Сообщение

Galfimbul ghost

avatar Galfimbul ghost


Звёздный путь: Пикар / Star Trek: Picard

Год выпуска: 2020
Страна: США
Жанр: Фантастика
Продолжительность: ~00:45:00
Перевод: Субтитры TeamNotDead

Режиссеры: Ханель Кулпеппер, Джонатан Фрейкс
В ролях: Патрик Стюарт, Сантьяго Кабрера, Элисон Пилл, Мишель Хёрд

Описание: Седьмой научно-фантастический телевизионный сериал вселенной «Звёздного пути». Через двадцать лет после гибели Дейты и четырнадцать лет после атаки на Марс адмиралу Пикару приходится снова уйти в космос.

Сэмпл: https://yadi.sk/i/LGxtcbSos8cz-w

Качество: AMZN.WEBRip 1080p
Контейнер: MKV
Видео: AVC, 1920х1080, 24 fps, 8.5 Mbps
Аудио: EAC3, 640 kbps, 6 ch, 48 kHz (Оригинал)
Субтитры: русские (TeamNotDead), английские
Реклама: Отсутствует
Star Trek: Picard: 1 сезон
AMZN.WEBRip | AMZN.WEBRip 720p | AMZN.WEBRip 1080p

S01E01. Remembrance / Воспоминания
S01E02. Maps and Legends / Карты и легенды
S01E03. The End is the Beginning / Конец — это начало
S01E04. Absolute Candor / Абсолютная откровенность
Перевод: maxibeginner
Редактирование, синхронизация: maxibeginner
General
Unique ID : 130040497264298045970224551291345588501 (0x61D4E38632666093EE634398FF8A5115)
Complete name : StarTrek.Picard.S01E01.AMZN.WEBRip.TeamNotDead.1080p.mkv
Format : Matroska
Format version : Version 4 / Version 2
File size : 3.03 GiB
Duration : 46mn 6s
Overall bit rate : 9 394 Kbps
Encoded date : UTC 2020-01-24 16:28:02
Writing application : mkvmerge v42.0.0 (''Overtime'') 64-bit
Writing library : libebml v1.3.10 + libmatroska v1.5.2
DURATION : 00:41:28.051000000
NUMBER_OF_FRAMES : 617
NUMBER_OF_BYTES : 17089
_STATISTICS_WRITING_APP : mkvmerge v42.0.0 (''Overtime'') 64-bit
_STATISTICS_WRITING_DATE_UTC : 2020-01-24 16:28:02
_STATISTICS_TAGS : BPS DURATION NUMBER_OF_FRAMES NUMBER_OF_BYTES

Video
ID : 1
Format : AVC
Format/Info : Advanced Video Codec
Format profile : High@L4.0
Format settings, CABAC : Yes
Format settings, ReFrames : 4 frames
Codec ID : V_MPEG4/ISO/AVC
Duration : 46mn 6s
Bit rate mode : Constant
Bit rate : 8 567 Kbps
Nominal bit rate : 10 000 Kbps
Width : 1 920 pixels
Height : 1 080 pixels
Display aspect ratio : 16:9
Frame rate mode : Constant
Frame rate : 24.000 fps
Color space : YUV
Chroma subsampling : 4:2:0
Bit depth : 8 bits
Scan type : Progressive
Bits/(Pixel*Frame) : 0.172
Stream size : 2.76 GiB (91%)
Default : Yes
Forced : No
Color primaries : BT.709
Transfer characteristics : BT.709
Matrix coefficients : BT.709

Audio
ID : 2
Format : E-AC-3
Format/Info : Audio Coding 3
Format settings, Endianness : Big
Codec ID : A_EAC3
Duration : 46mn 6s
Bit rate mode : Constant
Bit rate : 640 Kbps
Channel count : 6 channels
Channel positions : Front: L C R, Side: L R, LFE
Sampling rate : 48.0 KHz
Compression mode : Lossy
Stream size : 211 MiB (7%)
Language : English
Default : Yes
Forced : No

Text #1
ID : 3
Format : UTF-8
Codec ID : S_TEXT/UTF8
Codec ID/Info : UTF-8 Plain Text
Title : TeamNotDead
Language : Russian
Default : Yes
Forced : No

Text #2
ID : 4
Format : UTF-8
Codec ID : S_TEXT/UTF8
Codec ID/Info : UTF-8 Plain Text
Language : English
Default : No
Forced : No
Внимание! Раздача ведётся путём добавления новых серий; при каждом добавлении создаётся новый торрент. Чтобы начать докачку новой серии, пользователям необходимо сделать следующее:
(1) остановить скачивание,
(2) удалить старый торрент у себя из клиента (старые серии удалять не надо),
(3) скачать новый торрент и запустить его у себя в клиенте вместо старого, при этом указать клиенту путь в старую папку куда и должно происходить скачивание новых серий.
Ваш клиент при этом должен произвести хеширование (проверку) старой папки (если не производит сам - помогите ему сделать это), и будет докачивать только те серии которых у вас ещё нет. Старые серии при этом не удаляются, а продолжают раздаваться!
Eсли вы уже удалили старые серии, то предотвратить повторную закачку старых серий можно, отжав галочку в соответствующих местах при запуске нового торрента. По возможности, желательно не удалять старые серии как можно дольше чтобы релизёр не столько продолжал раздавать старые серии, а смог сконцентрироваться на новых.


Внимание! AdBlock блокирует показ скриншотов, все вопросы к разработчикам )))
Трекер:  [ 19-Фев-2020 10:18 ]

  

Скачать .torrent

Размер .torrent файла 29 KB


Размер: 11.58 GB
Хэш (hash) релиза: 8af81359170ac30a3c8e44a553454f75b34ba8dd
Подписка на обновления:

Торренты, похожие на Звёздный путь: Пикар Star Trek: Picard скачать торрент

Форум Название Автор Размер S L Добавлен
Зарубежные сериалы ·· Звёздный путь: Пикар / Star Trek: Picard / Сезон: 1 / Серии: 1-4 из 10 (Ханель Кулпеппер, Джонатан Фрейкс) [2020, США, фантастика, WEBRip 720p] Original + Rus Sub (TeamNotDead) Galfimbul ghost 54794006975.1 GB 0 0 1582097938

10:38

19-Фев-20

Зарубежные сериалы ·· Звёздный путь: Пикар / Star Trek: Picard / Сезон: 1 / Серии: 1-4 из 10 (Ханель М. Кулпеппер) [2020, США, Фантастика, боевик, драма, приключения, WEB-DL 720p] MVO (LostFilm) + Original + Sub (Rus, Eng) Galfimbul ghost 59934874085.58 GB 0 0 1582097668

10:34

19-Фев-20

Зарубежные сериалы ·· Звёздный путь: Пикар / Star Trek: Picard / Сезон: 1 / Серии: 1-4 из 10 (Ханель М. Кулпеппер) [2020, США, Фантастика, боевик, драма, приключения, WEB-DL 720p] MVO (AlexFilm) + Original + Sub (Rus, Eng) Galfimbul ghost 55682889065.19 GB 0 0 1582097657

10:34

19-Фев-20

Зарубежные сериалы ·· Звёздный путь: Пикар / Star Trek: Picard / Сезон: 1 / Серии: 1-4 из 10 (Ханель М. Кулпеппер, Джонатан Фрейкс, Акива Голдсман) [2020, США, Фантастика, боевик, драма, приключения, WEB-DLRip] MVO (AlexFilm) + Original + Sub (Rus, Eng) Galfimbul ghost 26275182702.45 GB 0 0 1582095123

09:52

19-Фев-20

dpd RU

Еще никто не оставлял запись к записи скачать торрент Звёздный путь: Пикар Star Trek: Picard . Будь первым!

!Обратная связь