Скачать через торрент Ветреный Hercai Фильм бесплатно в хорошем качестве torrent

Скачивайте на UnionPeer.org фильмы через торрент без регистрации. Новинки кино в хорошем качестве через торрент. На UnionPeer.org можно скачать через торрент фильмы 2014 и 2015 годов. Самые новые фильмы.

Скачать торрент Ветреный Hercai бесплатно через .torrent фильм мультфильм сериал

Статистика раздачи
Размер:  19.45 GB   |    Зарегистрирован:  1 месяц 20 дней   |    .torrent скачан:  9 раз   |   
Раздают:  1  
 

Скачать Ветреный / Hercai / Сезон: 2 / Серии: 4-20 (16-32) (??) (Джемаль Шан / Cemal Şan) [2019-2020, Турция, Драма, WEBRip (720p)] Rus Sub через torrent

 
загрузка...
 
Автор Сообщение

Galfimbul ghost

avatar Galfimbul ghost


Ветреный / Hercai

Год выпуска: 2019-2020
Производство: Mia Yapım
Жанр: Драма
Продолжительность: ~ 02:30:00 каждая серия
Субтитры: Русские (TurkSinema)

Режиссёр: Джемаль Шан / Cemal Şan

В ролях: Акын Акынозю / Akın Akınözü - Миран Асланбей
Эбру Шахин / Ebru Şahin - Реййан Шадоглу
Маджит Сокан / Macit Sokan - Насух Шадоглу
Илай Эркёк / İlay Erkök - Ярен Шадоглу
Гюльчин Сантыроглу / Gülçin Santıroğlu - Султан Асланбей
Серхат Тутумлуер / Serhat Tutumluer - Хазар Шадоглу
Айда Аксель / Ayda Aksel - Азизе Асланбей
Ойя Унустасы / Oya Unustası - Гёнуль Асланбей
Тансу Ташанлар / Tansu Taşanlar - Азат Шадоглу
Гюльчин Хатыхан / Gülçin Hatıhan - Хандан Шадоглу
Фериде Четин / Feride Çetin - Зехра Шадоглу
Инджи Шен / İnci Şen - Нигар Катарджы
Эда Башламышлы / Eda Başlamışlı - Элиф Асланбей
Сердар Озер / Serdar Özer - Джихан Шадоглу

Описание: Слоганом описывающим его сюжет стала фраза:
История о невозможной любви, рожденной из-за мести…
Создатели сериала уверяют, что зрители, затаив дыхание, будут следить за происходящими событиями…
Миран Асланбей - бизнесмен, приехавший из Стамбула в Мидьят. Он предлагает Насуху Шадоглу больше чем деловое партнерство – он просит руку и сердце его внучки Реййан. Однако у главы самой могущественной семьи в этом регионе есть другие планы – он отдаст за него внучку, но только другую. В то время как Насух пытается приобщить его к своим планам, он не знает, что у Мирана есть свой задуманный план. Пока все ждут какое решение примут двое мужчин, пришедшая новость глубоко затронет жизни Реййан и Ярен.
Как повлияет на судьбу двух семей, любовь возродившаяся на тысячелетних землях Мидьята? Смогут ли воссоединиться красавец бизнесмен из Стамбула и Реййан, о чьей красоте слагают легенды? Молодых людей влюбившихся с первого же взгляда ждут сложные испытания…

Качество: WEBRip (720p)
Формат: MP4
Видео кодек: H.264
Аудио кодек: AAC
Видео: MPEG4 Video (H264) 1280x720 25fps 1773kbps
Аудио: AAC 44100Hz stereo 192kbps

Реклама:
Отсутствует
General
Complete name : G:\Vetreniy.s02.2019.russ.sub.WEBRip720p\Vetreniy.s02.e16.2019.russ.sub.WEBRip720p.mp4
Format : MPEG-4
Format profile : Base Media
Codec ID : isom (isom/iso2/avc1/mp41)
File size : 2.07 GiB
Duration : 2 h 29 min
Overall bit rate mode : Variable
Overall bit rate : 1 972 kb/s
Writing application : Lavf58.20.100

Video
ID : 1
Format : AVC
Format/Info : Advanced Video Codec
Format profile : High@L3.1
Format settings : CABAC / 4 Ref Frames
Format settings, CABAC : Yes
Format settings, ReFrames : 4 frames
Codec ID : avc1
Codec ID/Info : Advanced Video Coding
Duration : 2 h 29 min
Bit rate mode : Variable
Bit rate : 1 774 kb/s
Maximum bit rate : 1 800 kb/s
Width : 1 280 pixels
Height : 720 pixels
Display aspect ratio : 16:9
Frame rate mode : Constant
Frame rate : 25.000 FPS
Color space : YUV
Chroma subsampling : 4:2:0
Bit depth : 8 bits
Scan type : Progressive
Bits/(Pixel*Frame) : 0.077
Stream size : 1.86 GiB (90%)

Audio
ID : 2
Format : AAC
Format/Info : Advanced Audio Codec
Format profile : LC
Codec ID : mp4a-40-2
Duration : 2 h 29 min
Bit rate mode : Constant
Bit rate : 192 kb/s
Channel(s) : 2 channels
Channel positions : Front: L R
Sampling rate : 44.1 kHz
Frame rate : 43.066 FPS (1024 SPF)
Compression mode : Lossy
Stream size : 206 MiB (10%)
Default : Yes
Alternate group : 1


Трекер:  [ 19-Фев-2020 10:48 ]

  

Скачать .torrent

Размер .torrent файла 99 KB


Размер: 19.45 GB
Хэш (hash) релиза: 4ef11f1b3f0949a45abc6c4652ac9960f13f956b
Подписка на обновления:

Торренты, похожие на Ветреный Hercai скачать торрент

Форум Название Автор Размер S L Добавлен
Зарубежные сериалы ·· Ветреный / Hercai / Сезон: 2 / Серии: 4-20 (16-32) (??) (Джемаль Шан / Cemal Şan) [2019-2020, Турция, Драма, WEBRip (720p)] DVO Gaydarghy & Borisov Galfimbul ghost 2755094280025.66 GB 0 0 1582097074

10:24

19-Фев-20

Еще никто не оставлял запись к записи скачать торрент Ветреный Hercai . Будь первым!

!Обратная связь