Скачать через торрент Блудный сын Prodigal Son Фильм бесплатно в хорошем качестве torrent

Скачивайте на UnionPeer.org фильмы через торрент без регистрации. Новинки кино в хорошем качестве через торрент. На UnionPeer.org можно скачать через торрент фильмы 2014 и 2015 годов. Самые новые фильмы.

Скачать торрент Блудный сын Prodigal Son бесплатно через .torrent фильм мультфильм сериал

Статистика раздачи
Размер:  39.94 GB   |    Зарегистрирован:  8 месяцев   |    .torrent скачан:  42 раза   |   
Раздают:  1  
 

Скачать Блудный сын / Prodigal Son / Сезон: 1 / Серии: 1-14 из 22 (Ли Толанд Кригер) [2019, США, Драма, криминал, WEB-DL 1080p] MVO (TVShows) + Original + Sub (Eng) через torrent

 
 
Автор Сообщение

Galfimbul ghost

avatar Galfimbul ghost


Блудный сын / Prodigal Son


Год выпуска: 2019
Страна: США
Жанр: Драма, криминал
Продолжительность: ~00:45:00

Перевод: Профессиональный (многоголосый закадровый) TVShows

Режиссёр: Ли Толанд Кригер
В ролях: Лу Даймонд Филлипс, Холстон Сейдж, Джеймс Мойер, Майкл Серверис, Фрэнк Хартс, Кейко Аджена, Беллами Янг, Аврора Перрино, Том Пэйн, Майкл Шин

Описание: Криминальный психолог Малькольма Брайта лучше всех разбирается в поведении маньяков и составляет на них досье. Как так получилось? Дело в том, что его родной отец — серийный убийца по кличке Хирург. Малькольму предстоит консультироваться с папой по поводу новых дел и параллельно самому не сойти с ума.

Сэмпл: http://multi-up.com/1243289

Качество: WEB-DL 1080p
Контейнер: MKV
Видео: MPEG-4 AVC, 1920x960, 23.976 fps, ~8089 kbps
Аудио 1: Русский, AC3, 48 kHz, 6 ch, 384 kbps
Аудио 2: Английский, E-AC3, 48 kHz, 6 ch, 640 kbps
Субтитры: Английские
Реклама: Отсутствует
General
Unique ID : 258142036407858696161790686938985810290 (0xC234590842C287305F1B6665E9AE4972)
Complete name : D:\Prodigal.Son.S01E01.1080p.TVShows.mkv
Format : Matroska
Format version : Version 4
File size : 2.90 GiB
Duration : 45 min 34 s
Overall bit rate : 9 115 kb/s
Encoded date : UTC 2019-09-27 07:03:06
Writing application : mkvmerge v33.1.0 (''Primrose'') 64-bit
Writing library : libebml v1.3.7 + libmatroska v1.5.0

Video
ID : 1
Format : AVC
Format/Info : Advanced Video Codec
Format profile : High@L4
Format settings : CABAC / 4 Ref Frames
Format settings, CABAC : Yes
Format settings, Reference frames : 4 frames
Codec ID : V_MPEG4/ISO/AVC
Duration : 45 min 34 s
Bit rate mode : Constant
Bit rate : 8 089 kb/s
Nominal bit rate : 10 000 kb/s
Width : 1 920 pixels
Height : 960 pixels
Display aspect ratio : 2.000
Frame rate mode : Constant
Frame rate : 23.976 (24000/1001) FPS
Color space : YUV
Chroma subsampling : 4:2:0
Bit depth : 8 bits
Scan type : Progressive
Bits/(Pixel*Frame) : 0.183
Stream size : 2.58 GiB (89%)
Default : Yes
Forced : No
Color range : Limited
Color primaries : BT.709
Transfer characteristics : BT.709
Matrix coefficients : BT.709

Audio #1
ID : 2
Format : AC-3
Format/Info : Audio Coding 3
Commercial name : Dolby Digital
Codec ID : A_AC3
Duration : 45 min 34 s
Bit rate mode : Constant
Bit rate : 384 kb/s
Channel(s) : 6 channels
Channel layout : L R C LFE Ls Rs
Sampling rate : 48.0 kHz
Frame rate : 31.250 FPS (1536 SPF)
Compression mode : Lossy
Stream size : 125 MiB (4%)
Title : TVShows
Language : Russian
Service kind : Complete Main
Default : Yes
Forced : Yes

Audio #2
ID : 3
Format : E-AC-3
Format/Info : Enhanced AC-3
Commercial name : Dolby Digital Plus
Codec ID : A_EAC3
Duration : 45 min 34 s
Bit rate mode : Constant
Bit rate : 640 kb/s
Channel(s) : 6 channels
Channel layout : L R C LFE Ls Rs
Sampling rate : 48.0 kHz
Frame rate : 31.250 FPS (1536 SPF)
Compression mode : Lossy
Stream size : 209 MiB (7%)
Title : Original
Language : English
Service kind : Complete Main
Default : No
Forced : No

Text
ID : 4
Format : UTF-8
Codec ID : S_TEXT/UTF8
Codec ID/Info : UTF-8 Plain Text
Duration : 44 min 49 s
Bit rate : 75 b/s
Count of elements : 867
Stream size : 24.7 KiB (0%)
Title : English
Language : English
Default : No
Forced : No
При каждом добавлении создаётся новый торрент. Чтобы начать докачку новой серии, пользователям необходимо сделать следующее:

остановить скачивание,
удалить старый торрент у себя из клиента (старые серии удалять не надо),
скачать новый торрент и запустить его у себя в клиенте вместо старого, при этом указать клиенту путь в старую папку куда и должно происходить скачивание новых серий.

Ваш клиент при этом должен произвести хеширование (проверку) старой папки (если не производит сам - помогите ему сделать это), и будет докачивать только те серии которых у вас ещё нет. Старые серии при этом не удаляются, а продолжают раздаваться!
Eсли вы уже удалили старые серии, то предотвратить повторную закачку старых серий можно, отжав галочку в соответствующих местах при запуске нового торрента. По возможности, желательно не удалять старые серии как можно дольше чтобы релизёр не столько продолжал раздавать старые серии, а смог сконцентрироваться на новых.


Внимание! AdBlock блокирует показ скриншотов, все вопросы к разработчикам )))
Трекер:  [ 19-Фев-2020 10:48 ]

  

Скачать .torrent

Размер .torrent файла 201 KB


Размер: 39.94 GB
Хэш (hash) релиза: ae8c08a5a0d68b14d6810d80000245110c1a1e32
Подписка на обновления:

billclinton

Thanks for sharing

Хотите добавить комментарий к записи скачать торрент Блудный сын Prodigal Son

!Обратная связь