Скачать через торрент Беглецы Runaways Фильм бесплатно в хорошем качестве torrent

Скачивайте на UnionPeer.org фильмы через торрент без регистрации. Новинки кино в хорошем качестве через торрент. На UnionPeer.org можно скачать через торрент фильмы 2014 и 2015 годов. Самые новые фильмы.

Скачать торрент Беглецы Runaways бесплатно через .torrent фильм мультфильм сериал

Статистика раздачи
Размер:  10.32 GB   |    Зарегистрирован:  1 месяц 20 дней   |    .torrent скачан:  15 раз   |   
Раздают:  1  
   
загрузка...
 
Автор Сообщение

Galfimbul ghost

avatar Galfimbul ghost


Беглецы | Runaways

Год выпуска: 2018
Страна: США
Жанр: фантастика, боевик, драма
Продолжительность: ~ 00:48:00

Перевод: Профессиональный (многоголосый закадровый) TVShows

Режиссёр: Рэмси Никелл, Джереми Уэбб, Джеффри В. Бёрд

В ролях: Рензи Фелиз, Лирика Окано, Вирджиния Гарднер, Ариэла Барер, Грегг Салкин, Аллегра Акоста, Энджел Паркер, Райан Сэндс, Энни Вершинг, Джеймс Марстерс и др.
Описание: История шести подростков, которые случайно узнают, что их родители входят в состав группы суперзлодеев под названием «Прайд». Эта группа руководит преступным миром Лос-Анджелеса. Дети узнают, что каждый из них, как и их родители, обладает какими-то способностями (а кто-то и вовсе не является человеком). Подростки решают, что не готовы принять такую судьбу, и пытаются сбежать от своих родителей.



Качество: WEB-DLRip
Формат: AVI
Видео: XVID, 720x400, 23.976 fps, ~2000 kbps avg, 0.29 bit/pixel
Аудио Rus: AC3, 48.0 KHz, 6 channels, 384 kbps
Субтитры: нет

Реклама отсутствует

Все раздачи сериала
General
Complete name : D:\Сериалы\Беглецы (Сезон 2) TVShows\Runaways.S02E01.WEB-DLRip.RGzsRutracker.Celta88.avi
Format : AVI
Format/Info : Audio Video Interleave
File size : 848 MiB
Duration : 49 min 32 s
Overall bit rate : 2 393 kb/s
Writing application : VirtualDubMod 1.5.10.3 | www.virtualdub-fr.org || (build 2550/release)
Writing library : VirtualDubMod build 2550/release

Video
ID : 0
Format : MPEG-4 Visual
Format profile : Advanced Simple@L5
Format settings, BVOP : 1
Format settings, QPel : No
Format settings, GMC : No warppoints
Format settings, Matrix : Custom
Codec ID : XVID
Codec ID/Hint : XviD
Duration : 49 min 32 s
Bit rate : 2 000 kb/s
Width : 720 pixels
Height : 400 pixels
Display aspect ratio : 16:9
Frame rate : 23.976 (24000/1001) FPS
Color space : YUV
Chroma subsampling : 4:2:0
Bit depth : 8 bits
Scan type : Progressive
Compression mode : Lossy
Bits/(Pixel*Frame) : 0.290
Stream size : 709 MiB (84%)
Writing library : XviD 73

Audio
ID : 1
Format : AC-3
Format/Info : Audio Coding 3
Mode extension : CM (complete main)
Format settings, Endianness : Big
Codec ID : 2000
Duration : 49 min 32 s
Bit rate mode : Constant
Bit rate : 384 kb/s
Channel(s) : 6 channels
Channel positions : Front: L C R, Side: L R, LFE
Sampling rate : 48.0 kHz
Frame rate : 31.250 FPS (1536 spf)
Bit depth : 16 bits
Compression mode : Lossy
Stream size : 136 MiB (16%)
Alignment : Split accross interleaves
Interleave, duration : 42 ms (1.00 video frame)
Interleave, preload duratio : 500 ms


Трекер:  [ 19-Фев-2020 11:18 ]

  

Скачать .torrent

Размер .torrent файла 53 KB


Размер: 10.32 GB
Хэш (hash) релиза: 4017accfbf784ee0af487b00dad6c772144b3326
Подписка на обновления:

Еще никто не оставлял запись к записи скачать торрент Беглецы Runaways . Будь первым!

!Обратная связь