Скачать через торрент Семейка Аддамс The Addams Family Фильм бесплатно в хорошем качестве torrent

Скачивайте на UnionPeer.org фильмы через торрент без регистрации. Новинки кино в хорошем качестве через торрент. На UnionPeer.org можно скачать через торрент фильмы 2014 и 2015 годов. Самые новые фильмы.

Скачать торрент Семейка Аддамс The Addams Family бесплатно через .torrent фильм мультфильм сериал

Статистика раздачи
Размер:  47.09 GB   |    Зарегистрирован:  6 месяцев   |    .torrent скачан:  12 раз   |   
Раздают:  1  
 

Скачать Семейка Аддамс / The Addams Family (2019) UHD BDRemux 2160p | HDR | D, А через torrent

 
Sprinthost
загрузка...
 
Автор Сообщение

Galfimbul ghost

avatar Galfimbul ghost


Семейка Аддамс /The Addams Family

Год выхода: 2019
Жанр: мультфильм, ужасы, фэнтези, комедия, семейный
Режиссер: Грег Тирнан, Конрад Вернон
В ролях: Оскар Айзек, Шарлиз Терон, Хлоя Грейс Морец, Финн Вулфард, Ник Кролл, Снуп Догг, Бетт Мидлер, Эллисон Джэнни, Мартин Шорт, Кэтрин О`Хара

О фильме:
Папа любит долгие прогулки в ненастную погоду. Мама считает, что черный цвет самый яркий. У детей кладбище — любимая площадка для игр. Бабушка выпивает пару капель яда перед сном. Вы все еще думаете, что ваши родственники странные? Знакомьтесь — семейка Аддамс.



Страна: Канада, США
Студия: BermanBraun, Bron Creative, Bron Studios, Cinesite Animation, Creative Wealth Media Finance, Metro-Goldwyn-Mayer (MGM), Nitrogen Studios Canada
Продолжительность: 01:27:08
Перевод: Дубляж, авторский

Файл
Кодек: H.265
Качество: UHD BDRemux 2160p
Видео: MPEG-H HEVC HDR, 68.6 Mбит/с, 3840x2160p, 23.976 кадр/с
Звук:
Русский: 48 kHz, AC3, 5.1 ch, 384 Kbps / Дублированный - iTunes
Русский: 48 kHz/24-bit, DTS-HD MA, 5.1 ch, 3934 Kbps / Одноголосый закадровый - М. Яроцкий
Английский: 48 kHz/24-bit, DTS-HD MA, 5.1 ch, 4470 Kbps
Субтитры: Русские (forced, forced songs, full), английские (full)
General
Unique ID : 110156767735180187435989686472045621109 (0x52DF6BF8304FF1480A935F2A6715EF75)
Complete name : C:KINOThe.Addams.Family.2019.BDRemux.2160p.HDR.by Silverok.mkv
Format : Matroska
Format version : Version 4
File size : 47.1 GiB
Duration : 1 h 27 min
Overall bit rate mode : Variable
Overall bit rate : 77.4 Mb/s
Movie name : The.Addams.Family.2019.BDRemux.2160p.HDR.by Silverok
Encoded date : UTC 2020-02-27 07:31:31
Writing application : mkvmerge v43.0.0 ('The Quartermaster') 64-bit
Writing library : libebml v1.3.10 + libmatroska v1.5.2
Cover : Yes
Attachments : cover.png

Video
ID : 1
Format : HEVC
Format/Info : High Efficiency Video Coding
Format profile : Main 10@L5.1@High
HDR format : SMPTE ST 2086, HDR10 compatible
Codec ID : V_MPEGH/ISO/HEVC
Duration : 1 h 27 min
Bit rate : 68.6 Mb/s
Width : 3 840 pixels
Height : 2 160 pixels
Display aspect ratio : 16:9
Frame rate mode : Constant
Frame rate : 23.976 (23976/1000) FPS
Color space : YUV
Chroma subsampling : 4:2:0 (Type 2)
Bit depth : 10 bits
Bits/(Pixel*Frame) : 0.345
Stream size : 41.7 GiB (89%)
Title : BDRemux.2160p.HDR.by Silverok
Writing library : x265 3.0_RC+11-9a975542fe39:[Windows][GCC 9.0.0][64 bit] 10bit
Encoding settings : cpuid=1111039 / frame-threads=6 / numa-pools=28,28 / wpp / no-pmode / no-pme / no-psnr / no-ssim / log-level=2 / input-csp=1 / input-res=3840x2160 / interlace=0 / total-frames=0 / level-idc=51 / high-tier=1 / uhd-bd=1 / ref=4 / no-allow-non-conformance / repeat-headers / annexb / aud / hrd / info / hash=0 / no-temporal-layers / no-open-gop / min-keyint=1 / keyint=24 / gop-lookahead=0 / bframes=4 / b-adapt=2 / b-pyramid / bframe-bias=0 / rc-lookahead=25 / lookahead-slices=4 / scenecut=40 / radl=0 / no-splice / no-intra-refresh / ctu=64 / min-cu-size=8 / rect / no-amp / max-tu-size=32 / tu-inter-depth=1 / tu-intra-depth=1 / limit-tu=0 / rdoq-level=2 / dynamic-rd=0.00 / no-ssim-rd / signhide / no-tskip / nr-intra=0 / nr-inter=0 / no-constrained-intra / strong-intra-smoothing / max-merge=3 / limit-refs=3 / limit-modes / me=3 / subme=3 / merange=57 / temporal-mvp / weightp / no-weightb / no-analyze-src-pics / deblock=0:0 / sao / no-sao-non-deblock / rd=4 / no-early-skip / rskip / no-fast-intra / no-tskip-fast / no-cu-lossless / no-b-intra / no-splitrd-skip / rdpenalty=0 / psy-rd=2.00 / psy-rdoq=1.00 / no-rd-refine / no-lossless / cbqpoffs=0 / crqpoffs=0 / rc=abr / bitrate=90000 / qcomp=0.60 / qpstep=4 / stats-write=0 / stats-read=2 / cplxblur=20.0 / qblur=0.5 / vbv-maxrate=95000 / vbv-bufsize=95000 / vbv-init=0.9 / ipratio=1.40 / pbratio=1.30 / aq-mode=2 / aq-strength=1.00 / cutree / zone-count=0 / no-strict-cbr / qg-size=32 / no-rc-grain / qpmax=69 / qpmin=0 / no-const-vbv / sar=1 / overscan=0 / videoformat=5 / range=0 / colorprim=9 / transfer=16 / colormatrix=9 / chromaloc=1 / chromaloc-top=2 / chromaloc-bottom=2 / display-window=0 / master-display=G(8500,39850)B(6550,2300)R(35400,14600)WP(15635,16450)L(10000000,1) / max-cll=1000,0 / min-luma=0 / max-luma=1023 / log2-max-poc-lsb=8 / vui-timing-info / vui-hrd-info / slices=1 / no-opt-qp-pps / no-opt-ref-list-length-pps / no-multi-pass-opt-rps / scenecut-bias=0.05 / no-opt-cu-delta-qp / no-aq-motion / hdr / hdr-opt / no-dhdr10-opt / no-idr-recovery-sei / analysis-reuse-level=5 / scale-factor=0 / refine-intra=0 / refine-inter=0 / refine-mv=0 / refine-ctu-distortion=0 / no-limit-sao / ctu-info=0 / no-lowpass-dct / refine-analysis-type=0 / copy-pic=1 / max-ausize-factor=1.0 / no-dynamic-refine / no-single-sei / no-hevc-aq / qp-adaptation-range=1.00
Default : Yes
Forced : No
Color range : Limited
Color primaries : BT.2020
Transfer characteristics : PQ
Matrix coefficients : BT.2020 non-constant
Mastering display color primaries : BT.2020
Mastering display luminance : min: 0.0001 cd/m2, max: 1000 cd/m2
Maximum Content Light Level : 1000 cd/m2

Audio #1
ID : 2
Format : AC-3
Format/Info : Audio Coding 3
Commercial name : Dolby Digital
Codec ID : A_AC3
Duration : 1 h 27 min
Bit rate mode : Constant
Bit rate : 384 kb/s
Channel(s) : 6 channels
Channel layout : L R C LFE Ls Rs
Sampling rate : 48.0 kHz
Frame rate : 31.250 FPS (1536 SPF)
Compression mode : Lossy
Stream size : 239 MiB (0%)
Title : Дубляж, iTunes
Language : Russian
Service kind : Complete Main
Default : Yes
Forced : No

Audio #2
ID : 3
Format : DTS XLL
Format/Info : Digital Theater Systems
Commercial name : DTS-HD Master Audio
Codec ID : A_DTS
Duration : 1 h 27 min
Bit rate mode : Variable
Bit rate : 3 934 kb/s
Channel(s) : 6 channels
Channel layout : C L R Ls Rs LFE
Sampling rate : 48.0 kHz
Frame rate : 93.750 FPS (512 SPF)
Bit depth : 24 bits
Compression mode : Lossless
Stream size : 2.39 GiB (5%)
Title : Авторский, М. Яроцкий
Language : Russian
Default : No
Forced : No

Audio #3
ID : 4
Format : DTS XLL
Format/Info : Digital Theater Systems
Commercial name : DTS-HD Master Audio
Codec ID : A_DTS
Duration : 1 h 27 min
Bit rate mode : Variable
Bit rate : 4 470 kb/s
Channel(s) : 6 channels
Channel layout : C L R Ls Rs LFE
Sampling rate : 48.0 kHz
Frame rate : 93.750 FPS (512 SPF)
Bit depth : 24 bits
Compression mode : Lossless
Stream size : 2.72 GiB (6%)
Language : English
Default : No
Forced : No

Text #1
ID : 5
Format : UTF-8
Codec ID : S_TEXT/UTF8
Codec ID/Info : UTF-8 Plain Text
Duration : 1 h 19 min
Bit rate : 1 b/s
Count of elements : 39
Stream size : 1.16 KiB (0%)
Title : Forced
Language : Russian
Default : Yes
Forced : No

Text #2
ID : 6
Format : UTF-8
Codec ID : S_TEXT/UTF8
Codec ID/Info : UTF-8 Plain Text
Duration : 53 min 24 s
Bit rate : 7 b/s
Count of elements : 56
Stream size : 2.81 KiB (0%)
Title : Forced songs
Language : Russian
Default : No
Forced : No

Text #3
ID : 7
Format : UTF-8
Codec ID : S_TEXT/UTF8
Codec ID/Info : UTF-8 Plain Text
Duration : 1 h 19 min
Bit rate : 105 b/s
Count of elements : 1221
Stream size : 61.5 KiB (0%)
Title : Full
Language : Russian
Default : No
Forced : No

Text #4
ID : 8
Format : UTF-8
Codec ID : S_TEXT/UTF8
Codec ID/Info : UTF-8 Plain Text
Duration : 1 h 25 min
Bit rate : 69 b/s
Count of elements : 1436
Stream size : 43.3 KiB (0%)
Title : Full
Language : English
Default : No
Forced : No

Menu
00:00:00.000 : en:Глава 01
00:07:01.588 : en:Глава 02
00:14:12.144 : en:Глава 03
00:21:45.097 : en:Глава 04
00:30:30.914 : en:Глава 05
00:36:49.543 : en:Глава 06
00:44:48.146 : en:Глава 07
00:50:02.461 : en:Глава 08
00:58:13.869 : en:Глава 09
01:05:48.866 : en:Глава 10
01:13:51.640 : en:Глава 11
01:19:13.921 : en:Глава 12
Источник http://listRutor.org

Внимание! AdBlock блокирует показ скриншотов, все вопросы к разработчикам )))
Трекер:  [ 27-Фев-2020 11:20 ]

  

Скачать .torrent

Размер .torrent файла 236 KB


Размер: 47.09 GB
Хэш (hash) релиза: 2e2863d8755a2cd19f52bba399ab5eb858d1e9fa
Подписка на обновления:

Торренты, похожие на Семейка Аддамс The Addams Family скачать торрент

Форум Название Автор Размер S L Добавлен
Зарубежные фильмы до 2016 ·· Семейка Аддамс, Ценности семейки Аддамс / The Addams Family, Addams Family Values (Барри Зонненфельд / Barry Sonnenfeld) [1991, 1993, США, фэнтези, комедия, 2xDVD9 (Custom)] MVO + AVO + Original Eng Galfimbul ghost 98387099019.16 GB 0 0 1505073970

23:06

10-Сен-17

Зарубежные фильмы до 2016 ·· Семейка Аддамс, Ценности семейки Аддамс / The Addams Family, Addams Family Values (Барри Зонненфельд / Barry Sonnenfeld) [1991, 1993, Черная комедия, Фэнтези, HDTVRip 720p] 2*MVO + 3*AVO (Михалев, Сербин, Сонькин) + Original Eng Galfimbul ghost 1289728964512.01 GB 0 0 1311318883

10:14

22-Июл-11

Мультфильмы 2016-2020 (Новинки мультфильмов) ·%· Семейка Аддамс / The Addams Family (2019) BDRip-HEVC 1080p | Лицензия Galfimbul ghost 39677948443.7 GB 0 0 1587151321

22:22

17-Апр-20

Мультфильмы 2016-2020 (Новинки мультфильмов) ·%· Семейка Аддамс / The Addams Family (2019) BDRip-AVC | D, А | Лицензия Galfimbul ghost 23395535672.18 GB 0 0 1586706628

18:50

12-Апр-20

Мультфильмы 2016-2020 (Новинки мультфильмов) ·%· Семейка Аддамс / The Addams Family (2019) BDRip-AVC от OlLanDGroup | Лицензия Galfimbul ghost 782044909746 MB 0 0 1586682658

12:10

12-Апр-20

Мультфильмы 2016-2020 (Новинки мультфильмов) ·%· Семейка Аддамс / The Addams Family (2019) Blu-ray EUR 1080p | Лицензия Galfimbul ghost 3379548975931.47 GB 0 0 1586681531

11:52

12-Апр-20

Мультфильмы 2016-2020 (Новинки мультфильмов) ·%· Семейка Аддамс / The Addams Family (2019) BDRip 720p от ELEKTRI4KA | D, A | Лицензия Galfimbul ghost 75099203546.99 GB 0 0 1586677316

10:41

12-Апр-20

Мультфильмы 2016-2020 (Новинки мультфильмов) ·%· Семейка Аддамс / The Addams Family (2019) BDRip 1080p от ELEKTRI4KA | D, A | Лицензия Galfimbul ghost 104373355519.72 GB 0 0 1586677297

10:41

12-Апр-20

Мультфильмы 2016-2020 (Новинки мультфильмов) ·%· Семейка Аддамс / The Addams Family (2019) BDRemux 1080p от селезень | D, A | Лицензия Galfimbul ghost 2614397171524.35 GB 0 0 1586671233

09:00

12-Апр-20

Мультфильмы 2016-2020 (Новинки мультфильмов) ·%· Семейка Аддамс / The Addams Family (2019) UHD BDRemux 2160p от селезень | 4K | HDR | D, A | Лицензия Galfimbul ghost 5181982980148.26 GB 0 0 1586671222

09:00

12-Апр-20

Мультфильмы 2016-2020 (Новинки мультфильмов) ·%· Семейка Аддамс / The Addams Family (2019) BDRip 720p от селезень | Лицензия Galfimbul ghost 39451964083.67 GB 0 0 1586670166

08:42

12-Апр-20

Мультфильмы 2016-2020 (Новинки мультфильмов) ·%· Семейка Аддамс / The Addams Family (2019) BDRip 1080p от селезень | Лицензия Galfimbul ghost 87123806968.11 GB 0 0 1586668891

08:21

12-Апр-20

Мультфильмы 2016-2020 (Новинки мультфильмов) ·· Семейка Аддамс / The Addams Family (2019) HDRip | КПК | iTunes Galfimbul ghost 445344371425 MB 0 0 1583073610

17:40

1-Мар-20

Мультфильмы 2016-2020 (Новинки мультфильмов) ·· Семейка Аддамс / The Addams Family (2019) BDRemux 1080p от селезень | D, A | iTunes Galfimbul ghost 2560036116023.84 GB 0 0 1581883831

23:10

16-Фев-20

Мультфильмы 2016-2020 (Новинки мультфильмов) ·· Семейка Аддамс / The Addams Family (2019) BDRip 1080p от селезень | D, A | iTunes Galfimbul ghost 97684412279.1 GB 0 0 1581882668

22:51

16-Фев-20

Мультфильмы 2016-2020 (Новинки мультфильмов) ·· Семейка Аддамс / The Addams Family (2019) BDRip 720p от селезень | D, A | iTunes Galfimbul ghost 68410208336.37 GB 0 0 1581882660

22:51

16-Фев-20

Мультфильмы 2016-2020 (Новинки мультфильмов) ·· Семейка Аддамс / The Addams Family (2019) BDRip от Twister & ExKinoRay | A Galfimbul ghost 15682961941.46 GB 0 0 1580755211

21:40

3-Фев-20

Мультфильмы 2016-2020 (Новинки мультфильмов) ·· Семейка Аддамс / The Addams Family (2019) BDRip 1080p от селезень | A Galfimbul ghost 93921782038.75 GB 0 0 1580410220

21:50

30-Янв-20

Мультфильмы 2016-2020 (Новинки мультфильмов) ·· Семейка Аддамс / The Addams Family (2019) BDRemux 1080p от селезень | A Galfimbul ghost 2480608771423.1 GB 0 0 1580409032

21:30

30-Янв-20

dpd RU

Еще никто не оставлял запись к записи скачать торрент Семейка Аддамс The Addams Family . Будь первым!

!Обратная связь