Скачать через торрент Покемон 22: Мьюту наносит ответный удар — Эволюция Pokemon Movie: Mewtwo no Gyakushuu Evolution Фильм бесплатно в хорошем качестве torrent

Скачивайте на UnionPeer.org фильмы через торрент без регистрации. Новинки кино в хорошем качестве через торрент. На UnionPeer.org можно скачать через торрент фильмы 2014 и 2015 годов. Самые новые фильмы.

Скачать торрент Покемон 22: Мьюту наносит ответный удар — Эволюция Pokemon Movie: Mewtwo no Gyakushuu Evolution бесплатно через .torrent фильм мультфильм сериал

Статистика раздачи
Размер:  3.33 GB   |    Зарегистрирован:  1 месяц 10 дней   |    .torrent скачан:  52 раза   |   
Раздают:  1  
 

Скачать Покемон 22: Мьюту наносит ответный удар — Эволюция / Pokemon Movie: Mewtwo no Gyakushuu Evolution / Pok?mon: Mewtwo Strikes Back - Evolution (2019) WEB-DL 720p | D через torrent

 
загрузка...
 
Автор Сообщение

Galfimbul ghost

avatar Galfimbul ghost


Покемон: Мьюту наносит ответный удар – Эволюция /Pokemon Movie: Mewtwo no Gyakushuu Evolution

Год выхода: 2019
Жанр: Мультфильм, детское, комедия, приключения, фэнтези.
Режиссер: Мото Сакакибара
В ролях: Масатика Итимура, Маюми Иидзука, Коити Ямадэра, Икуэ Отани, Рика Мацумото, Юдзи Уэда, Мэгуми Хаясибара, Инуко Инуяма, Синъитиро Мики

О фильме:
Главный герой — покемон Мьюту, созданный в секретной лаборатории, чтобы стать орудием уничтожения человечества. Узнав о своей миссии, он уничтожает лабораторию и своих создателей.

Страна: Япония
Продолжительность: 01:37:49
Перевод: Профессиональный (дублированный)

Файл
Кодек: h.264
Качество: WEB-DL 720p
Видео: MPEG-4 AVC, 1280x720, 23,976 fps, 3650 Kbps
Звук:
Аудио #1: E-AC-3, 6ch, 640 kb/s - Дубляж
Аудио #2: E-AC-3, 6ch, 640 kb/s - Английский
Субтитры: Русские, английские
Video
ID : 1
Format : AVC
Format/Info : Advanced Video Codec
Format profile : Main@L3.1
Format settings : CABAC / 3 Ref Frames
Format settings, CABAC : Yes
Format settings, Reference : 3 frames
Codec ID : V_MPEG4/ISO/AVC
Duration : 1 h 37 min
Bit rate mode : Variable
Bit rate : 3 650 kb/s
Maximum bit rate : 5 475 kb/s
Width : 1 280 pixels
Height : 720 pixels
Display aspect ratio : 16:9
Frame rate mode : Constant
Frame rate : 23.976 (24000/1001) FPS
Color space : YUV
Chroma subsampling : 4:2:0
Bit depth : 8 bits
Scan type : Progressive
Bits/(Pixel*Frame) : 0.165
Stream size : 2.46 GiB (74%)
Writing library : x264 core 148 r2717 0d2410d
Encoding settings : cabac=1 / ref=3 / deblock=1:0:0 / analyse=0x1:0x111 / me=umh / subme=10 / psy=1 / psy_rd=1.00:0.00 / mixed_ref=1 / me_range=24 / chroma_me=1 / trellis=2 / 8x8dct=0 / cqm=0 / deadzone=21,11 / fast_pskip=1 / chroma_qp_offset=-2 / threads=8 / lookahead_threads=1 / sliced_threads=0 / nr=0 / decimate=1 / interlaced=0 / bluray_compat=0 / stitchable=1 / constrained_intra=0 / bframes=2 / b_pyramid=0 / b_adapt=2 / b_bias=0 / direct=3 / weightb=1 / open_gop=0 / weightp=2 / keyint=250 / keyint_min=23 / scenecut=0 / intra_refresh=0 / rc_lookahead=48 / rc=2pass / mbtree=1 / bitrate=3650 / ratetol=1.0 / qcomp=0.50 / qpmin=6 / qpmax=51 / qpstep=4 / cplxblur=20.0 / qblur=0.5 / vbv_maxrate=5475 / vbv_bufsize=7300 / nal_hrd=vbr / filler=0 / ip_ratio=1.40 / aq=1:1.00
Default : Yes
Forced : No

Audio #1
ID : 2
Format : E-AC-3
Format/Info : Enhanced AC-3
Commercial name : Dolby Digital Plus
Codec ID : A_EAC3
Duration : 1 h 37 min
Bit rate mode : Constant
Bit rate : 640 kb/s
Channel(s) : 6 channels
Channel layout : L R C LFE Ls Rs
Sampling rate : 48.0 kHz
Frame rate : 31.250 FPS (1536 SPF)
Compression mode : Lossy
Stream size : 448 MiB (13%)
Title : Дубляж
Language : Russian
Service kind : Complete Main
Default : Yes
Forced : No

Audio #2
ID : 3
Format : E-AC-3
Format/Info : Enhanced AC-3
Commercial name : Dolby Digital Plus
Codec ID : A_EAC3
Duration : 1 h 37 min
Bit rate mode : Constant
Bit rate : 640 kb/s
Channel(s) : 6 channels
Channel layout : L R C LFE Ls Rs
Sampling rate : 48.0 kHz
Frame rate : 31.250 FPS (1536 SPF)
Compression mode : Lossy
Stream size : 448 MiB (13%)
Title : Английский
Language : English
Service kind : Complete Main
Default : No
Forced : No

Text #1
ID : 4
Format : UTF-8
Codec ID : S_TEXT/UTF8
Codec ID/Info : UTF-8 Plain Text
Duration : 1 h 31 min
Bit rate : 46 b/s
Count of elements : 666
Stream size : 30.8 KiB (0%)
Title : Russian [Full]
Language : Russian
Default : No
Forced : No

Text #2
ID : 5
Format : UTF-8
Codec ID : S_TEXT/UTF8
Codec ID/Info : UTF-8 Plain Text
Duration : 1 h 34 min
Bit rate : 46 b/s
Count of elements : 1100
Stream size : 32.2 KiB (0%)
Title : English [Full]
Language : English
Default : No
Forced : No
Источник http://listRutor.org

Трекер:  [ 28-Фев-2020 19:30 ]

  

Скачать .torrent

Размер .torrent файла 17 KB


Размер: 3.33 GB
Хэш (hash) релиза: 2bb3cc8e796702691d74cc78949fe34d3e660b8d
Подписка на обновления:

Еще никто не оставлял запись к записи скачать торрент Покемон 22: Мьюту наносит ответный удар — Эволюция Pokemon Movie: Mewtwo no Gyakushuu Evolution . Будь первым!

!Обратная связь