Скачать через торрент Иван Царевич и Серый Волк 4 Фильм бесплатно в хорошем качестве torrent

Скачивайте на UnionPeer.org фильмы через торрент без регистрации. Новинки кино в хорошем качестве через торрент. На UnionPeer.org можно скачать через торрент фильмы 2014 и 2015 годов. Самые новые фильмы.

Скачать торрент Иван Царевич и Серый Волк 4 бесплатно через .torrent фильм мультфильм сериал

Статистика раздачи
Размер:  2.31 GB   |    Зарегистрирован:  1 месяц 8 дней   |    .torrent скачан:  78 раз   |   
Раздают:  1  
 

Скачать Иван Царевич и Серый Волк 4 (2019) WEBRip 1080p через torrent

 
загрузка...
 
Автор Сообщение

Galfimbul ghost

avatar Galfimbul ghost


Иван Царевич и Серый Волк 4



[b]Год выхода:
2019
Жанр: Мультфильм, приключения, семейный
Страна: Россия
Перевод: Не требуется
Продолжительность: 01:27:59
Режиссер: Дарина Шмидт
Роли озвучивали: Никита Ефремов, Иван Охлобыстин, Михаил Боярский, Равшана Куркова, Сергей Волчков, Мария Цветкова-Овсянникова, Александр Боярский, Олег Куликович, Анатолий Петров, Михаил Хрусталёв и др.

О фильме: Зима в этом году в тридевятом царстве случилась особенно долгая и холодная. Прямо, как в прошлом году. И как в позапрошлом. Но, вот, пришла весна. Точнее — почти пришла. С вьюгой, морозами и снегом. Как обычно. И совсем было загрустили наши герои — Иван, Василиса, Серый Волк и Царь-батюшка, если бы вместе с почти-весной, не пришла новость — в Трисемнадцатом царстве пройдет ежегодный всесказочный конкурс песни. В прошлом году там победил хомяк Жорж, а чей голос окажется круче на этот раз? Царь решил, что Тридевятое царство будет представлять Кот-ученый. Не один все же мультфильм прошли вместе, да и все равно он про книги забыл, орет, точнее поет целыми днями на крышах, как и положено коту в марте. И, конечно, вся компания во главе с Иваном и Волком отправляется поддержать пушистого певца. Ведь свои нужны рядом. А то шоу-бизнес — настоящий серпентарий, и кто знает, какие темные силы стоят за коварными соперниками и их стремлением стать звездой.



Файл
Качество: WEBRip 1080p
Видео: MPEG-4 AVC, 1920x1080, 3562 kbps, 24,000 fps
Звук: русский, AC3, 2.0 ch, 48 kHz, 192 kbps
Субтитры: нет
Общее
Уникальный идентификатор : 176786268069274443966717877184173212177 (0x84FFCBF75B3A31159A81608097388211)
Полное имя : G:Torrent2IvanCarevichIseryjVolk4WebRip1080p.mkv
Формат : Matroska
Версия формата : Version 4 / Version 2
Размер файла : 2,31 Гбайт
Продолжительность : 1 ч. 27 м.
Общий поток : 3756 Кбит/сек
Дата кодирования : UTC 2020-02-27 16:25:09
Программа кодирования : mkvmerge v9.5.0 ('Quiet Fire') 64bit
Библиотека кодирования : libebml v1.3.4 + libmatroska v1.4.5

Видео
Идентификатор : 1
Формат : AVC
Формат/Информация : Advanced Video Codec
Профиль формата : High@L4
Настройки формата : CABAC / 4 Ref Frames
Параметр CABAC формата : Да
Параметр RefFrames формата : 4 кадра
Идентификатор кодека : V_MPEG4/ISO/AVC
Продолжительность : 1 ч. 27 м.
Битрейт : 3562 Кбит/сек
Ширина : 1920 пикселей
Высота : 1080 пикселей
Соотношение сторон : 16:9
Режим частоты кадров : Постоянный
Частота кадров : 24,000 кадра/сек
Цветовое пространство : YUV
Субдискретизация насыщенности : 4:2:0
Битовая глубина : 8 бит
Тип развёртки : Прогрессивная
Бит/(Пиксели*Кадры) : 0.072
Размер потока : 2,19 Гбайт (95%)
Язык : Russian
Default : Да
Forced : Нет

Аудио
Идентификатор : 2
Формат : AC-3
Формат/Информация : Audio Coding 3
Параметр Endianness формата : Big
Идентификатор кодека : A_AC3
Продолжительность : 1 ч. 27 м.
Вид битрейта : Постоянный
Битрейт : 192 Кбит/сек
Каналы : 2 канала
Расположение каналов : Front: L R
Частота : 48,0 КГц
Частота кадров : 31,250 кадров/сек (1536 SPF)
Битовая глубина : 16 бит
Метод сжатия : С потерями
Размер потока : 121 Мбайт (5%)
Заголовок : rus
Язык : Russian
Default : Да
Forced : Нет
Источник http://listRutor.org

Трекер:  [ 28-Фев-2020 19:30 ]

  

Скачать .torrent

Размер .torrent файла 12 KB


Размер: 2.31 GB
Хэш (hash) релиза: b583dda676055a98d6c6a6e947d46900f5e3b353
Подписка на обновления:

Еще никто не оставлял запись к записи скачать торрент Иван Царевич и Серый Волк 4 . Будь первым!

!Обратная связь