[Pacopacomama.com] 022720 262 - Mao Okayama UnionPeer.org HD

2015, 2014 UnionPeer.org

.

1.77 GB   |    :  3 3    |    .torrent :  181    |   
1  
   
 

Galfimbul

avatar Galfimbul


[Pacopacomama.com] 022720_262 - Mao Okayama
: 2020 .
: 20''s, Big Tits, Creampie, Sexy Legs, Bareback, Blowjob, Cunnilingus
: 01:01:46
:

:
: 012718_214
: Mao Okayama

: Name: Mao Okayama
Age: 24
Size: B93 W63 H86
Release Date: 2020-02-27

: WEB-DL
: MP4
: log MediaInfo
: log MediaInfo


Format : MPEG-4
Format profile : Base Media
Codec ID : isom (isom/iso2/avc1/mp41)
File size : 1.77 GiB
Duration : 1 h 1 min
Overall bit rate : 4 107 kb/s
Writing application : Lavf58.3.100

Video
ID : 1
Format : AVC
Format/Info : Advanced Video Codec
Format profile : [email protected]
Format settings : CABAC / 4 Ref Frames
Format settings, CABAC : Yes
Format settings, ReFrames : 4 frames
Codec ID : avc1
Codec ID/Info : Advanced Video Coding
Duration : 1 h 1 min
Bit rate : 4 000 kb/s
Width : 1 920 pixels
Height : 1 080 pixels
Display aspect ratio : 16:9
Frame rate mode : Constant
Frame rate : 59.940 (60000/1001) FPS
Color space : YUV
Chroma subsampling : 4:2:0
Bit depth : 8 bits
Scan type : Progressive
Bits/(Pixel*Frame) : 0.032
Stream size : 1.73 GiB (97%)
Writing library : x264 core 155 r61 b00bcaf
Encoding settings : cabac=1 / ref=4 / deblock=1:0:0 / analyse=0x3:0x133 / me=umh / subme=10 / psy=1 / psy_rd=1.00:0.00 / mixed_ref=1 / me_range=24 / chroma_me=1 / trellis=2 / 8x8dct=1 / cqm=0 / deadzone=21,11 / fast_pskip=1 / chroma_qp_offset=-2 / threads=34 / lookahead_threads=5 / sliced_threads=0 / nr=0 / decimate=1 / interlaced=0 / bluray_compat=0 / constrained_intra=0 / bframes=8 / b_pyramid=2 / b_adapt=2 / b_bias=0 / direct=3 / weightb=1 / open_gop=0 / weightp=2 / keyint=250 / keyint_min=25 / scenecut=40 / intra_refresh=0 / rc_lookahead=60 / rc=2pass / mbtree=1 / bitrate=4000 / ratetol=1.0 / qcomp=0.60 / qpmin=0 / qpmax=69 / qpstep=4 / cplxblur=20.0 / qblur=0.5 / ip_ratio=1.40 / aq=1:1.00
Language : English
Codec configuration box : avcC

Audio
ID : 2
Format : AAC LC
Format/Info : Advanced Audio Codec Low Complexity
Codec ID : mp4a-40-2
Duration : 1 h 1 min
Duration_LastFrame : -12 ms
Bit rate mode : Constant
Bit rate : 93.4 kb/s
Channel(s) : 2 channels
Channel layout : L R
Sampling rate : 48.0 kHz
Frame rate : 46.875 FPS (1024 SPF)
Compression mode : Lossy
Stream size : 41.3 MiB (2%)
Language : English
Default : Yes
Alternate group : 1


! AdBlock , )))
 ·  , , FAQ-
:  [ 01--2020 15:10 ]

  

.torrent

.torrent 71 KB


: 1.77 GB
(hash) : 518be2797971bab02a60f13ebba40cb5fe8445e7
··
...

[Pacopacomama.com] 022720 262 - Mao Okayama . !

!