Pacopacomama 122911 544 UnionPeer.org HD

2015, 2014 UnionPeer.org

.

1.88 GB   |    :  3 3    |    .torrent :  337    |   
1  
   
 

Galfimbul

avatar Galfimbul


Pacopacomama 122911_544

: 2011 .
: Tits, Creampie, Swallow, Dildo, Blowjob, Anal
:
: 1 h 4 min

:
: 122911_544
HD : 720p
: WEB-DL
: WMV
: log MediaInfo
: log MediaInfo


Format : Windows Media
File size : 1.88 GiB
Duration : 1 h 4 min
Overall bit rate mode : Variable
Overall bit rate : 4 204 kb/s
Maximum Overall bit rate : 7 217 kb/s
Encoded date : UTC 2011-12-09 07:08:40.906

Video
ID : 2
Format : VC-1
Format profile : [email protected]
Codec ID : WMV3
Codec ID/Info : Windows Media Video 9
Codec ID/Hint : WMV3
Description of the codec : Windows Media Video 9 - Professional
Duration : 1 h 4 min
Bit rate mode : Variable
Bit rate : 4 000 kb/s
Width : 1 280 pixels
Height : 720 pixels
Display aspect ratio : 16:9
Frame rate : 29.970 FPS
Color space : YUV
Chroma subsampling : 4:2:0
Bit depth : 8 bits
Scan type : Progressive
Compression mode : Lossy
Bits/(Pixel*Frame) : 0.145
Stream size : 1.79 GiB (95%)
NumberOfFrames : 115243

Audio
ID : 1
Format : WMA
Format version : Version 2
Codec ID : 161
Codec ID/Info : Windows Media Audio
Description of the codec : Windows Media Audio 9.2 - 192 kbps, 48 kHz, stereo 2-pass VBR
Duration : 1 h 4 min
Bit rate mode : Variable
Bit rate : 185 kb/s
Channel(s) : 2 channels
Sampling rate : 48.0 kHz
Bit depth : 16 bits
Stream size : 85.0 MiB (4%)


! AdBlock , )))
 ·  , , FAQ-
:  [ 01--2020 15:50 ]

  

.torrent

.torrent 75 KB


: 1.88 GB
(hash) : 7227c376a24c96913b8ca55febb9e9ae118d5584
··
...

Pacopacomama 122911 544 . !

!