Kumiko Kikuchi - UnionPeer.org HD

2015, 2014 UnionPeer.org

.

1.75 GB   |    :  3 3    |    .torrent :  167    |   
1  
   
 

Galfimbul

avatar Galfimbul


Kumiko Kikuchi - [Pacopacomama.com] 022320_260

: 2020 .
:
: Asian, Creampie, Blowjob, Doggystyle
: 1 h 1 min
:

:
: 022320_260
: Kumiko Kikuchi

: Release Date: 2020-02-29
Name: Kumiko Kikuchi
Age: 32
Size: B82 W60 H85

HD : 1080p
: SiteRip
: MP4
: log MediaInfo
: log MediaInfo


Format : MPEG-4
Format profile : Base Media
Codec ID : isom (isom/iso2/avc1/mp41)
File size : 1.75 GiB
Duration : 1 h 1 min
Overall bit rate : 4 107 kb/s
Writing application : Lavf58.3.100

Video
ID : 1
Format : AVC
Format/Info : Advanced Video Codec
Format profile : [email protected]
Format settings : CABAC / 4 Ref Frames
Format settings, CABAC : Yes
Format settings, ReFrames : 4 frames
Codec ID : avc1
Codec ID/Info : Advanced Video Coding
Duration : 1 h 1 min
Bit rate : 4 000 kb/s
Width : 1 920 pixels
Height : 1 080 pixels
Display aspect ratio : 16:9
Frame rate mode : Constant
Frame rate : 59.940 (60000/1001) FPS
Color space : YUV
Chroma subsampling : 4:2:0
Bit depth : 8 bits
Scan type : Progressive
Bits/(Pixel*Frame) : 0.032
Stream size : 1.71 GiB (97%)
Writing library : x264 core 155 r61 b00bcaf
Encoding settings : cabac=1 / ref=4 / deblock=1:0:0 / analyse=0x3:0x133 / me=umh / subme=10 / psy=1 / psy_rd=1.00:0.00 / mixed_ref=1 / me_range=24 / chroma_me=1 / trellis=2 / 8x8dct=1 / cqm=0 / deadzone=21,11 / fast_pskip=1 / chroma_qp_offset=-2 / threads=34 / lookahead_threads=5 / sliced_threads=0 / nr=0 / decimate=1 / interlaced=0 / bluray_compat=0 / constrained_intra=0 / bframes=8 / b_pyramid=2 / b_adapt=2 / b_bias=0 / direct=3 / weightb=1 / open_gop=0 / weightp=2 / keyint=250 / keyint_min=25 / scenecut=40 / intra_refresh=0 / rc_lookahead=60 / rc=2pass / mbtree=1 / bitrate=4000 / ratetol=1.0 / qcomp=0.60 / qpmin=0 / qpmax=69 / qpstep=4 / cplxblur=20.0 / qblur=0.5 / ip_ratio=1.40 / aq=1:1.00
Language : English
Codec configuration box : avcC

Audio
ID : 2
Format : AAC LC
Format/Info : Advanced Audio Codec Low Complexity
Codec ID : mp4a-40-2
Duration : 1 h 1 min
Duration_LastFrame : -3 ms
Bit rate mode : Constant
Bit rate : 93.4 kb/s
Channel(s) : 2 channels
Channel layout : L R
Sampling rate : 48.0 kHz
Frame rate : 46.875 FPS (1024 SPF)
Compression mode : Lossy
Stream size : 40.8 MiB (2%)
Language : English
Default : Yes
Alternate group : 1


! AdBlock , )))
 ·  , , FAQ-
:  [ 01--2020 16:20 ]

  

.torrent

.torrent 70 KB


: 1.75 GB
(hash) : a06202b38c820d434175a0ae6a85d3a6c54a6568
··
...

, Kumiko Kikuchi -

S L
(DVD HD Video) / Japanese Movies & SiteRip's (DVD & HD Video) ·· [PacoPacoMama.com] Rieko Kohashi, Hitomi Nagase,Kumiko Kikuchi, Suzu Motomiya, Chika Yoda (011021 418) [uncen] [2021 ., All Sex, Big Tits, Pretty Tits, Creampie, Sahved Pussy, Vibrator, Slut, Kimono, Swallow, Peeing, Slender, Cum-in-Mouth, Bareback, Galfimbul 55691562455.19 GB 0 0 1611082927

22:02

19--21

2015-2022 / Japanese Movies & SiteRip's 2015-2022 ·· [PacoPacoMama.com] Rieko Kohashi, Hitomi Nagase,Kumiko Kikuchi, Suzu Motomiya, Chika Yoda (011021 418) [uncen] [2021 ., All Sex, Big Tits, Pretty Tits, Creampie, Sahved Pussy, Vibrator, Slut, Kimono, Swallow, Peeing, Slender, Cum-in-Mouth, Bareback, Galfimbul 18062416221.68 GB 0 0 1611082567

21:56

19--21

2015-2022 / Japanese Movies & SiteRip's 2015-2022 ·· [Heyzo.com] Ladies Who Love Anal Drilling - Kumiko Kikuchi & Yu Tsuruno [2384] [uncen] [2020 ., Anal Sex, All Sex, Blowjob, Threesome, Creampie, Orgy, Toy, 540p] Galfimbul 12297680351.15 GB 0 0 1604226985

13:36

1--20

2015-2022 / Japanese Movies & SiteRip's 2015-2022 ·· [Heyzo.com] Ladies Who Love Anal Drilling - Kumiko Kikuchi & Yu Tsuruno [2384] [uncen] [2020 ., Anal Sex, All Sex, Blowjob, Threesome, Creampie, Orgy, Toy, 480p [url=https://adult-images.ru/1024/35489/] [/url] [url=https://adult-im Galfimbul 847174665808 MB 0 0 1604215571

10:26

1--20

(DVD HD Video) / Japanese Movies & SiteRip's (DVD & HD Video) ·· [Heyzo.com] Ladies Who Love Anal Drilling - Kumiko Kikuchi & Yu Tsuruno [2384] [uncen] [2020 ., Anal Sex, All Sex, Threesome, Creampie, Orgy, Toy, 1080p] Galfimbul 29799775222.78 GB 0 0 1604184270

01:44

1--20

(DVD HD Video) / Japanese Movies & SiteRip's (DVD & HD Video) ·· [PacoPacoMama.com] Kumiko Kikuchi (070420 325) [uncen] [2020 ., Pretty Tits, Creampie, Sahved Pussy, Slender, Sweet Ass, Sexy Legs, Shave, Bareback, Blowjob, Handjob, Cunnilingus, POV, 1080p] Galfimbul 23580354662.2 GB 0 0 1598652609

01:10

29--20

(DVD HD Video) / Japanese Movies & SiteRip's (DVD & HD Video) ·· Kumiko Kikuchi - [Pacopacomama.com] [013020 248] (Pacopacomama.com) [uncen] [2020 ., Asian, Blowjob, Cowgirl, Creampie, Hairy, Doggy Style, Small Tits, Small Cock,, HDRip] [1080p] Galfimbul 18855760551.76 GB 0 0 1585400467

16:01

28--20

(DVD HD Video) / Japanese Movies & SiteRip's (DVD & HD Video) ·· Kumiko Kikuchi - Pacopacomama 022320 260 [022320 260] [uncen] [2020 ., Asian, Creampie, Blowjob, Doggystyle, SiteRip] [720p] Galfimbul 14439010571.34 GB 0 0 1583068829

16:20

1--20

Kumiko Kikuchi - . !

!