Misa Eguchi - UnionPeer.org HD

2015, 2014 UnionPeer.org

.

2.2 GB   |    :  3 3    |    .torrent :  114    |   
1  
   
 

Galfimbul

avatar Galfimbul


Misa Eguchi - [Pacopacomama.com] 120410_255

: 2018 .
:
: Asian, Blowjob, Cowgirl, Creampie, Cumshot, Cunnilingus, Doggy Style, Handjob, Maid
: 1 h 15 min
:

:
: 120410_255
: Misa Eguchi

: Age: 34 years old
Size: B: 84 W: 58 H: 86

HD : 720p
: SiteRip
: WMV
: log MediaInfo
: log MediaInfo


Format : Windows Media
File size : 2.20 GiB
Duration : 1 h 15 min
Overall bit rate mode : Constant
Overall bit rate : 4 151 kb/s
Maximum Overall bit rate : 4 226 kb/s
Encoded date : UTC 2020-02-23 06:09:31.954

Video
ID : 2
Format : VC-1
Format profile : Main
Codec ID : WMV3
Codec ID/Info : Windows Media Video 9
Codec ID/Hint : WMV3
Duration : 1 h 15 min
Bit rate mode : Constant
Bit rate : 4 000 kb/s
Width : 1 280 pixels
Height : 720 pixels
Display aspect ratio : 16:9
Frame rate : 29.970 (29970/1000) FPS
Color space : YUV
Chroma subsampling : 4:2:0
Bit depth : 8 bits
Scan type : Progressive
Compression mode : Lossy
Bits/(Pixel*Frame) : 0.145
Stream size : 2.12 GiB (96%)

Audio
ID : 1
Format : WMA
Format version : Version 2
Codec ID : 161
Codec ID/Info : Windows Media Audio
Duration : 1 h 15 min
Bit rate mode : Constant
Bit rate : 192 kb/s
Channel(s) : 2 channels
Sampling rate : 48.0 kHz
Bit depth : 16 bits
Stream size : 104 MiB (5%)


! AdBlock , )))
 ·  , , FAQ-
:  [ 01--2020 16:50 ]

  

.torrent

.torrent 88 KB


: 2.2 GB
(hash) : da3e16d80fbbb606d62afa7ab5ef9fa5594cf9f9
··
...

Misa Eguchi - . !

!