Yukari Ayaka - UnionPeer.org HD

2015, 2014 UnionPeer.org

.

1.45 GB   |    :  3 3    |    .torrent :  232    |   
1  
   
 

Galfimbul

avatar Galfimbul


Yukari Ayaka - [Pacopacomama.com] 021820_257

: 2020 .
:
: Asian, Blowjob, Cowgirl, Creampie, Doggy Style, Small Tits, Cum shots, Swallow, Cum play
: 50 min 36 s
:

:
: 021820_257
: Release Date: 2020-02-18
Name: Yukari Ayaka
Age: 34
Size: B85 W59 H86

HD : 1080p
: SATRip
: MP4
: log MediaInfo
: log MediaInfo



Format : MPEG-4
Format profile : Base Media
Codec ID : isom (isom/iso2/avc1/mp41)
File size : 1.45 GiB
Duration : 50 min 36 s
Overall bit rate : 4 107 kb/s
Writing application : Lavf58.3.100

Video
ID : 1
Format : AVC
Format/Info : Advanced Video Codec
Format profile : [email protected]
Format settings : CABAC / 4 Ref Frames
Format settings, CABAC : Yes
Format settings, ReFrames : 4 frames
Codec ID : avc1
Codec ID/Info : Advanced Video Coding
Duration : 50 min 36 s
Bit rate : 4 000 kb/s
Width : 1 920 pixels
Height : 1 080 pixels
Display aspect ratio : 16:9
Frame rate mode : Constant
Frame rate : 59.940 (60000/1001) FPS
Color space : YUV
Chroma subsampling : 4:2:0
Bit depth : 8 bits
Scan type : Progressive
Bits/(Pixel*Frame) : 0.032
Stream size : 1.41 GiB (97%)
Writing library : x264 core 155 r61 b00bcaf
Encoding settings : cabac=1 / ref=4 / deblock=1:0:0 / analyse=0x3:0x133 / me=umh / subme=10 / psy=1 / psy_rd=1.00:0.00 / mixed_ref=1 / me_range=24 / chroma_me=1 / trellis=2 / 8x8dct=1 / cqm=0 / deadzone=21,11 / fast_pskip=1 / chroma_qp_offset=-2 / threads=24 / lookahead_threads=4 / sliced_threads=0 / nr=0 / decimate=1 / interlaced=0 / bluray_compat=0 / constrained_intra=0 / bframes=8 / b_pyramid=2 / b_adapt=2 / b_bias=0 / direct=3 / weightb=1 / open_gop=0 / weightp=2 / keyint=250 / keyint_min=25 / scenecut=40 / intra_refresh=0 / rc_lookahead=60 / rc=2pass / mbtree=1 / bitrate=4000 / ratetol=1.0 / qcomp=0.60 / qpmin=0 / qpmax=69 / qpstep=4 / cplxblur=20.0 / qblur=0.5 / ip_ratio=1.40 / aq=1:1.00
Language : English
Color range : Full
Codec configuration box : avcC

Audio
ID : 2
Format : AAC LC
Format/Info : Advanced Audio Codec Low Complexity
Codec ID : mp4a-40-2
Duration : 50 min 36 s
Duration_LastFrame : -20 ms
Bit rate mode : Constant
Bit rate : 93.4 kb/s
Channel(s) : 2 channels
Channel layout : L R
Sampling rate : 48.0 kHz
Frame rate : 46.875 FPS (1024 SPF)
Compression mode : Lossy
Stream size : 33.8 MiB (2%)
Language : English
Default : Yes
Alternate group : 1


! AdBlock , )))
 ·  , , FAQ-
:  [ 01--2020 19:40 ]

  

.torrent

.torrent 58 KB


: 1.45 GB
(hash) : 145d26ae7716a8b8dc26f7c1229c28a4cb451ce7
··
...

, Yukari Ayaka -

S L
(DVD HD Video) / Japanese Movies & SiteRip's (DVD & HD Video) ·· [1pondo.tv] Yukari Ayaka - Horny kimono beauty: Yukari Ayaka [010221 001] [uncen] [2021 ., All Sex, Blowjob, Creampie, Vibrator, 1080p] Galfimbul 15370441091.43 GB 0 0 1609940527

16:42

6--21

·%· [1Pondo.tv] Yukari Ayaka (34 ) [uncen] [101818 757] [2018 ., Amateur, Mature, Pretty Tits, Blowjob, All sex, Creampie, 1080p, 59.94fps] Galfimbul 18111837471.69 GB 0 0 1540070767

00:26

21--18

·%· [PacoPacoMama.com] : Yukari Ayaka (34 ) [uncen] [092218 343] [2018 ., Amateur, Mature, Pretty Tits, Blowjob, Deep Troat, 1080p, 59.94fps] Galfimbul 479042432457 MB 1 1 1539378640

00:10

13--18

·%· [PacoPacoMama.com] : Yukari Ayaka (34 ) [uncen] [092218 344] [2018 ., Amateur, Mature, Pretty Tits, Blowjob, All sex, Creampie, 1080p, 59.94fps] Galfimbul 15578969241.45 GB 0 0 1539378568

00:09

13--18

·%· [Caribbeancom.com] Yukari Ayaka - Shoot In My Mouth, Let Me Drink Up [100918-769] [uncen] [2018 ., Amateur, Mature, Pretty Tits, Blowjob, All sex, Cum shots, Swallow, 1080p, 60fps] Galfimbul 15586289141.45 GB 0 0 1539378505

00:08

13--18

2015-2022 / Japanese Movies & SiteRip's 2015-2022 ·· [1pondo.tv] Ayaka Yukari - Naked apron Deriheru housekeeper [072520 001] [uncen] [2020 ., All Sex, BlowJob, Cunnilingus, Creampie, 480p [url=https://adult-images.ru/1024/35489/] [/url] [url=https://adult-images.ru/1024/35489/] Galfimbul 538673524514 MB 0 0 1597191375

03:16

12--20

(DVD HD Video) / Japanese Movies & SiteRip's (DVD & HD Video) ·· [1pondo.tv] Ayaka Yukari - Naked apron Deriheru housekeeper [072520 001] [uncen] [2020 ., All Sex, BlowJob, Cunnilingus, Creampie, 1080p] Galfimbul 16517938951.54 GB 0 0 1597191007

03:10

12--20

Yukari Ayaka - . !

!