Скачать через торрент Марафон желаний Фильм бесплатно в хорошем качестве torrent

Скачивайте на UnionPeer.org фильмы через торрент без регистрации. Новинки кино в хорошем качестве через торрент. На UnionPeer.org можно скачать через торрент фильмы 2014 и 2015 годов. Самые новые фильмы.

Скачать торрент Марафон желаний бесплатно через .torrent фильм мультфильм сериал

Статистика раздачи
Размер:  3.14 GB   |    Зарегистрирован:  1 месяц 5 дней   |    .torrent скачан:  124 раза   |   
Раздают:  1  
 

Скачать Марафон желаний (2020) WEB-DL 1080p | iTunes через torrent

 
загрузка...
 
Автор Сообщение

Galfimbul ghost

avatar Galfimbul ghost


Название: Марафон желаний
Год выпуска: 2020
Жанр: Комедия, мелодрама, приключения
Режиссер: Даша Чаруша
В ролях: Аглая Тарасова, Кирилл Нагиев, Мария Миногарова, Александр Гудков, Яна Троянова, Павел Деревянко, Юлия Ауг, Екатерина Варнава, Макар Запорожский, Олег Курсачёв

О фильме: "Я хочу нижнее белье из одного комплекта. Я хочу в Париж. Я хочу увидеть мир. Я хочу замуж за любимого. Я хочу новые духи. Я хочу отдать кредит за окна! Я хочу найти паспорт до свадьбы"... У Марины есть 7 желаний. Но главное - стать счастливой. Однако пересадка в Пулково и неожиданная встреча вносят свои коррективы в ее планы.


Страна: Россия
Студия: Кинокомпания «САГа»
Продолжительность: 01:29:49
Перевод: Не требуется | iTunes

Файл
Качество: WEB-DL 1080p
Контейнер: MKV
Видео: MPEG-4 AVC, 1920x804, 4616 Kbps, 25.000 fps
Аудио: Russian: AC3, 48.0 KHz, 6 ch, 16 bits, 384 kbps
Субтитры: Нет
Video
ID : 1
Format : AVC
Format/Info : Advanced Video Codec
Format profile : High@L4
Format settings : CABAC / 5 Ref Frames
Format settings, CABAC : Yes
Format settings, Reference : 5 frames
Codec ID : V_MPEG4/ISO/AVC
Duration : 1 h 29 min
Bit rate : 4 616 kb/s
Width : 1 920 pixels
Height : 804 pixels
Display aspect ratio : 2.40:1
Frame rate mode : Constant
Frame rate : 25.000 FPS
Color space : YUV
Chroma subsampling : 4:2:0
Bit depth : 8 bits
Scan type : Progressive
Bits/(Pixel*Frame) : 0.120
Stream size : 2.90 GiB (92%)
Title : MARAFON_ZHELANIJ_2020_WEB-DL_1080p-BLUEBIRD
Language : English
Default : Yes
Forced : No
Color range : Limited
Color primaries : BT.709
Transfer characteristics : BT.709
Matrix coefficients : BT.709

Audio
ID : 2
Format : AC-3
Format/Info : Audio Coding 3
Commercial name : Dolby Digital
Codec ID : A_AC3
Duration : 1 h 29 min
Bit rate mode : Constant
Bit rate : 384 kb/s
Channel(s) : 6 channels
Channel layout : L R C LFE Ls Rs
Sampling rate : 48.0 kHz
Frame rate : 31.250 FPS (1536 SPF)
Compression mode : Lossy
Delay relative to video : -40 ms
Stream size : 247 MiB (8%)
Title : [ORIGINAL] DD 5.1 @ 384 kbps (iTunes)
Language : Russian
Service kind : Complete Main
Default : Yes
Forced : No

Menu
00:00:00.000 : en:Глава 1
00:08:04.440 : en:Глава 2
00:16:18.160 : en:Глава 3
00:24:37.600 : en:Глава 4
00:32:52.760 : en:Глава 5
00:41:14.080 : en:Глава 6
00:49:22.480 : en:Глава 7
00:56:31.280 : en:Глава 8
01:04:40.640 : en:Глава 9
01:13:15.640 : en:Глава 10
01:21:25.640 : en:Глава 11
Источник http://listRutor.org

Трекер:  [ 05-Мар-2020 03:00 ]

  

Скачать .torrent

Размер .torrent файла 16 KB


Размер: 3.14 GB
Хэш (hash) релиза: c7f871cc624298566d4b0109febd06b5a808dc21
Подписка на обновления:

Торренты, похожие на Марафон желаний скачать торрент

Форум Название Автор Размер S L Добавлен
Российские фильмы 2016-2020 (Новинки русского кино) ·· Марафон желаний (2020) WEB-DLRip от Generalfilm | КПК | iTunes Galfimbul ghost 356888055340 MB 2 0 1584179467

12:51

14-Мар-20

Российские фильмы 2016-2020 (Новинки русского кино) ·· Марафон желаний (2020) WEB-DLRip от Scarabey | iTunes Galfimbul ghost 15514439681.44 GB 2 0 1583598069

19:21

7-Мар-20

Российские фильмы 2016-2020 (Новинки русского кино) ·· Марафон желаний (2020) WEB-DLRip 720p от ExKinoRay | iTunes Galfimbul ghost 24789398102.31 GB 0 0 1583538639

02:50

7-Мар-20

Российские фильмы 2016-2020 (Новинки русского кино) ·· Марафон желаний (2020) WEB-DLRip-AVC от ExKinoRay | iTunes Galfimbul ghost 19265915331.79 GB 0 0 1583452225

02:50

6-Мар-20

Российские фильмы 2016-2020 (Новинки русского кино) ·· Марафон желаний (2020) WEB-DLRip от Files-x | iTunes Galfimbul ghost 14754775041.37 GB 0 0 1583424018

19:00

5-Мар-20

Российские фильмы 2016-2020 (Новинки русского кино) ·· Марафон желаний (2020) WEB-DLRip-AVC от Files-x | iTunes Galfimbul ghost 15632825781.46 GB 0 0 1583419209

17:40

5-Мар-20

Российские фильмы 2016-2020 (Новинки русского кино) ·· Марафон желаний (2020) WEB-DLRip-AVC | iTunes Galfimbul ghost 15647291631.46 GB 0 0 1583403057

13:10

5-Мар-20

Российские фильмы 2016-2020 (Новинки русского кино) ·· Марафон желаний (2020) WEB-DLRip от ELEKTRI4KA | iTunes Galfimbul ghost 15667877441.46 GB 0 0 1583403038

13:10

5-Мар-20

Российские фильмы 2016-2020 (Новинки русского кино) ·· Марафон желаний (2020) WEB-DLRip | iTunes Galfimbul ghost 779649024744 MB 0 0 1583393433

10:30

5-Мар-20

Еще никто не оставлял запись к записи скачать торрент Марафон желаний . Будь первым!

!Обратная связь