Скачать через торрент Выпускной Госэкзамен Фильм бесплатно в хорошем качестве torrent

Скачивайте на UnionPeer.org фильмы через торрент без регистрации. Новинки кино в хорошем качестве через торрент. На UnionPeer.org можно скачать через торрент фильмы 2014 и 2015 годов. Самые новые фильмы.

Скачать торрент Выпускной Госэкзамен бесплатно через .torrent фильм мультфильм сериал

Статистика раздачи
Размер:  11.18 GB   |    Зарегистрирован:  3 года 11 месяцев   |    .torrent скачан:  9 раз   |   
Раздают:  1  
 

Скачать Выпускной / Госэкзамен / Bacalaureat / Graduation (2016) BDRip 1080p от liosaa | L1 через torrent

 
 
Автор Сообщение

Galfimbul

avatar Galfimbul


Выпускной / Госэкзамен /Bacalaureat / Graduation

Год выхода: 2016
Жанр: драма
Режиссер: Кристиан Мунджиу / Cristian Mungiu
В ролях: Адриан Титиени, Мария Драгуш, Рареш Андричи, Лиа Буньяр, Малина Мановичи, Влад Иванов, Валериу Андрюцэ, Петре Чеботару

О фильме:
Потёртый жизнью врач, хороший в общем-то мужик, доктор Альде, желает дочке-выпускнице одного: чтобы она скорей свалила из их тьмутаракани - этого вместилища тотальной коррупции, кумовства, откатов, беспринципности и бесконечных "ты мне - я тебе", под названием Румыния - куда-нибудь подальше в цивилизацию, там где человека ценят не за связи, а исключительно за таланты, где сразу видно, кто чего стоит, где у каждого есть шанс прожить долгую и счастливую жизнь. И всё вроде бы к тому идёт - дочка отличница, английским владеет, ей уже сулят стипендию два британских ВУЗа, осталось лишь пройти процедуру госэкзамена и набрать нужный балл, как вдруг...

От одного камня, пущенного в окно не пойми кем, целый мир вокруг будто даёт трещину и наваливается всем своим неприятным весом на маленькое румынское семейство, ломая мечты, корёжа представления о чести и воспаляя совесть. А мы будем идти за героем по всем кругам его личного ада, сшитого из мелких компромиссов, неумелых подлогов, хворей родных и близких и готовности принести себя в жертву местному Левиафану, только лишь ради призрачного счастья любимой дочери... (Приз за режиссуру на 69-м Каннском кинофестивале)
synopsis**liosaa


Доп. информация: ВПЕРВЫЕ РУССКИЙ DTS-звук!!


Страна: Румыния, Франция, Бельгия
Продолжительность: 02:07:12
Перевод: Любительский (одноголосый закадровый) liosaa

Файл
Кодек: h.264
Качество: BDRip 1080p
Видео: 1980x808 (2.40:1), 24.000 fps, 9563 Kbps
Звук:
DTS 5.1, 48 kHz, 24 bit, 1509 kbps (рус)
DTS 5.1, 48 kHz, 24 bit, 1509 kbps (rum)
Субтитры: русские liosaa, английские
Формат : Matroska
Версия формата : Version 2
Размер файла : 11,2 Гбайт
Продолжительность : 2 ч. 7 м.
Общий поток : 12,6 Мбит/сек
Дата кодирования : UTC 2020-03-04 19:20:07
Программа кодирования : mkvmerge v3.0.0 ('Hang up your Hang-Ups') built on Dec 12 2009 15:20:35
Библиотека кодирования : libebml v0.7.9 + libmatroska v0.8.1

Видео
Идентификатор : 1
Формат : AVC
Формат/Информация : Advanced Video Codec
Профиль формата : [email protected]
Настройки формата : CABAC / 5 Ref Frames
Параметр CABAC формата : Да
Параметр RefFrames формата : 5 кадров
Идентификатор кодека : V_MPEG4/ISO/AVC
Продолжительность : 2 ч. 7 м.
Битрейт : 9563 Кбит/сек
Ширина : 1920 пикселей
Высота : 808 пикселей
Соотношение сторон : 2,40:1
Режим частоты кадров : Постоянный
Частота кадров : 24,000 кадра/сек
Цветовое пространство : YUV
Субдискретизация насыщенности : 4:2:0
Битовая глубина : 8 бит
Тип развёртки : Прогрессивная
Бит/(Пиксели*Кадры) : 0.257
Размер потока : 8,28 Гбайт (74%)
Библиотека кодирования : x264 core 148 r2744 b97ae06
Настройки программы : cabac=1 / ref=5 / deblock=1:-3:-3 / analyse=0x3:0x133 / me=umh / subme=8 / psy=1 / psy_rd=1.00:0.00 / mixed_ref=1 / me_range=16 / chroma_me=1 / trellis=1 / 8x8dct=1 / cqm=0 / deadzone=21,11 / fast_pskip=0 / chroma_qp_offset=-2 / threads=6 / lookahead_threads=1 / sliced_threads=0 / nr=0 / decimate=1 / interlaced=0 / bluray_compat=0 / constrained_intra=0 / bframes=3 / b_pyramid=2 / b_adapt=1 / b_bias=0 / direct=3 / weightb=1 / open_gop=0 / weightp=2 / keyint=250 / keyint_min=24 / scenecut=40 / intra_refresh=0 / rc_lookahead=50 / rc=2pass / mbtree=1 / bitrate=9563 / ratetol=1.0 / qcomp=0.60 / qpmin=0 / qpmax=69 / qpstep=4 / cplxblur=20.0 / qblur=0.5 / vbv_maxrate=62500 / vbv_bufsize=78125 / nal_hrd=none / filler=0 / ip_ratio=1.40 / aq=1:1.00
Default : Нет
Forced : Нет

Аудио #1
Идентификатор : 2
Формат : DTS
Формат/Информация : Digital Theater Systems
Идентификатор кодека : A_DTS
Продолжительность : 2 ч. 7 м.
Вид битрейта : Постоянный
Битрейт : 1509 Кбит/сек
Каналы : 6 каналов
ChannelLayout : C L R Ls Rs LFE
Частота : 48,0 КГц
Частота кадров : 93,750 кадра/сек (512 SPF)
Битовая глубина : 24 бит
Метод сжатия : С потерями
Размер потока : 1,34 Гбайт (12%)
Заголовок : VO*liosaa DTS 5.1
Язык : Russian
Default : Да
Forced : Нет

Аудио #2
Идентификатор : 3
Формат : DTS
Формат/Информация : Digital Theater Systems
Идентификатор кодека : A_DTS
Продолжительность : 2 ч. 7 м.
Вид битрейта : Постоянный
Битрейт : 1509 Кбит/сек
Каналы : 6 каналов
ChannelLayout : C L R Ls Rs LFE
Частота : 48,0 КГц
Частота кадров : 93,750 кадра/сек (512 SPF)
Битовая глубина : 24 бит
Метод сжатия : С потерями
Задержка видео : 11 мс.
Размер потока : 1,34 Гбайт (12%)
Заголовок : Original DTS 5.1
Язык : Romanian
Default : Нет
Forced : Нет

Текст #1
Идентификатор : 4
Формат : UTF-8
Идентификатор кодека : S_TEXT/UTF8
Идентификатор кодека/Информация : UTF-8 Plain Text
Заголовок : *liosaa*
Язык : Russian
Default : Нет
Forced : Нет

Текст #2
Идентификатор : 5
Формат : UTF-8
Идентификатор кодека : S_TEXT/UTF8
Идентификатор кодека/Информация : UTF-8 Plain Text
Язык : English
Default : Нет
Forced : Нет

Меню
00:00:00.000 : en:00:00:00.000
00:08:03.167 : en:00:08:03.167
00:17:30.375 : en:00:17:30.375
00:27:07.667 : en:00:27:07.667
00:38:08.125 : en:00:38:08.125
00:49:39.417 : en:00:49:39.417
01:03:11.083 : en:01:03:11.083
01:17:48.208 : en:01:17:48.208
01:32:26.000 : en:01:32:26.000
01:47:16.875 : en:01:47:16.875
01:56:27.917 : en:01:56:27.917
02:04:47.417 : en:02:04:47.417
Источник http://listRutor.org

Внимание! AdBlock блокирует показ скриншотов, все вопросы к разработчикам )))
Трекер:  [ 05-Мар-2020 10:30 ]

  

Скачать .torrent

Размер .torrent файла 28 KB


Размер: 11.18 GB
Хэш (hash) релиза: a7113c6e474676d849c287cb7e99d0983f6387ee
Подписка на обновления:

Еще никто не оставлял запись к записи скачать торрент Выпускной Госэкзамен . Будь первым!

!Обратная связь